<?xml version="1.0" standalone="no"?>
<!DOCTYPE svg PUBLIC "-//W3C//DTD SVG 1.1//EN" "http://www.w3.org/Graphics/SVG/1.1/DTD/svg11.dtd" >
<svg xmlns="http://www.w3.org/2000/svg">
<metadata>Generated by IcoMoon</metadata>
<defs>
<font id="teenyicon" horiz-adv-x="1024">
<font-face units-per-em="1024" ascent="960" descent="-64" />
<missing-glyph horiz-adv-x="1024" />
<glyph unicode="&#x20;" horiz-adv-x="512" d="" />
<glyph unicode="&#xe900;" glyph-name="360" d="M307.2 584.533l27.307-20.48c7.757 10.343 9.005 24.181 3.223 35.745s-17.601 18.868-30.53 18.868v-34.133zM204.8 448l-27.307 20.48c-7.757-10.343-9.005-24.181-3.223-35.745s17.601-18.868 30.53-18.868v34.133zM869.465 765.142v0zM136.533 550.4h170.667v68.267h-170.667v-68.267zM279.893 605.013l-102.4-136.533 54.613-40.96 102.4 136.533-54.613 40.96zM204.8 413.867h34.133v68.267h-34.133v-68.267zM238.933 345.6h-102.4v-68.267h102.4v68.267zM273.067 379.733c0-18.851-15.282-34.133-34.133-34.133v-68.267c56.554 0 102.4 45.846 102.4 102.4h-68.267zM238.933 413.867c18.851 0 34.133-15.282 34.133-34.133h68.267c0 56.554-45.846 102.4-102.4 102.4v-68.267zM546.133 618.667h-34.133v-68.267h34.133v68.267zM409.6 516.267v-68.267h68.267v68.267h-68.267zM409.6 448v-68.267h68.267v68.267h-68.267zM512 482.133h-68.267v-68.267h68.267v68.267zM614.4 379.733c0 56.554-45.846 102.4-102.4 102.4v-68.267c18.851 0 34.133-15.282 34.133-34.133h68.267zM512 277.333c56.554 0 102.4 45.846 102.4 102.4h-68.267c0-18.851-15.282-34.133-34.133-34.133v-68.267zM512 345.6c-18.851 0-34.133 15.282-34.133 34.133h-68.267c0-56.554 45.846-102.4 102.4-102.4v68.267zM512 618.667c-56.554 0-102.4-45.846-102.4-102.4h68.267c0 18.851 15.282 34.133 34.133 34.133v68.267zM819.2 516.267v-136.533h68.267v136.533h-68.267zM750.933 379.733v136.533h-68.267v-136.533h68.267zM785.067 345.6c-18.848 0-34.133 15.282-34.133 34.133h-68.267c0-56.554 45.848-102.4 102.4-102.4v68.267zM819.2 379.733c0-18.851-15.285-34.133-34.133-34.133v-68.267c56.552 0 102.4 45.846 102.4 102.4h-68.267zM785.067 550.4c18.848 0 34.133-15.282 34.133-34.133h68.267c0 56.554-45.848 102.4-102.4 102.4v-68.267zM785.067 618.667c-56.552 0-102.4-45.846-102.4-102.4h68.267c0 18.851 15.285 34.133 34.133 34.133v68.267zM512 4.267c-245.067 0-443.733 198.663-443.733 443.733h-68.267c0-282.767 229.23-512 512-512v68.267zM955.733 448c0-245.071-198.663-443.733-443.733-443.733v-68.267c282.767 0 512 229.233 512 512h-68.267zM512 960c-282.77 0-512-229.23-512-512h68.267c0 245.067 198.666 443.733 443.733 443.733v68.267zM921.6 755.2c18.848 0 34.133-15.282 34.133-34.133h68.267c0 56.554-45.848 102.4-102.4 102.4v-68.267zM921.6 686.933c-18.848 0-34.133 15.282-34.133 34.133h-68.267c0-56.554 45.848-102.4 102.4-102.4v68.267zM887.467 721.067c0 8.428 3.011 16.065 8.055 22.026l-52.108 44.1c-15.087-17.824-24.214-40.953-24.214-66.126h68.267zM895.522 743.092c6.315 7.461 15.633 12.108 26.078 12.108v68.267c-31.362 0-59.46-14.141-78.186-36.274l52.108-44.1zM512 891.733c132.057 0 250.607-57.644 331.94-149.253l51.050 45.324c-93.737 105.583-230.608 172.196-382.99 172.196v-68.267zM911.619 641.131c28.256-58.346 44.114-123.838 44.114-193.131h68.267c0 79.819-18.289 155.464-50.941 222.885l-61.44-29.753zM955.733 721.067c0-15.184-9.94-28.135-23.75-32.535l20.719-65.047c41.308 13.158 71.298 51.823 71.298 97.582h-68.267zM931.983 688.531c-3.236-1.029-6.711-1.598-10.383-1.598v-68.267c10.786 0 21.251 1.68 31.102 4.818l-20.719 65.047z" />
<glyph unicode="&#xe901;" glyph-name="ab-testing" d="M546.133 4.267h-68.267v887.467h68.267v-887.467zM819.2 209.067h-204.8v477.867h204.8c75.093 0 136.533-61.44 136.533-136.533 0-40.96-20.48-75.093-47.787-102.4 27.307-27.307 47.787-61.44 47.787-102.4 0-75.093-61.44-136.533-136.533-136.533zM682.667 277.333h136.533c40.96 0 68.267 27.307 68.267 68.267s-27.307 68.267-68.267 68.267h-136.533v-136.533zM682.667 482.133h136.533c40.96 0 68.267 27.307 68.267 68.267s-27.307 68.267-68.267 68.267h-136.533v-136.533zM409.6 209.067h-68.267v136.533h-204.8v-136.533h-68.267v307.2c0 95.573 75.093 170.667 170.667 170.667s170.667-75.093 170.667-170.667v-307.2zM136.533 413.867h204.8v102.4c0 54.613-47.787 102.4-102.4 102.4s-102.4-47.787-102.4-102.4v-102.4z" />
<glyph unicode="&#xe902;" glyph-name="add" d="M546.133 4.267h-68.267v409.6h-409.6v68.267h409.6v409.6h68.267v-409.6h409.6v-68.267h-409.6z" />
<glyph unicode="&#xe903;" glyph-name="address-book" d="M375.467 174.933h-34.133v-34.133h34.133v34.133zM716.8 174.933v-34.133h34.133v34.133h-34.133zM409.6 174.933v34.14h-68.267v-34.14h68.267zM682.667 209.067v-34.133h68.267v34.133h-68.267zM716.8 209.067h-341.333v-68.267h341.333v68.267zM546.133 345.6c75.405 0 136.533-61.128 136.533-136.533h68.267c0 113.108-91.692 204.8-204.8 204.8v-68.267zM409.6 209.073c0 75.405 61.126 136.527 136.533 136.527v68.267c-113.106 0-204.8-91.682-204.8-204.793h68.267zM546.133 755.2c-75.405 0-136.533-61.128-136.533-136.533h68.267c0 37.702 30.564 68.267 68.267 68.267v68.267zM682.667 618.667c0 75.405-61.128 136.533-136.533 136.533v-68.267c37.702 0 68.267-30.564 68.267-68.267h68.267zM546.133 482.133c75.405 0 136.533 61.128 136.533 136.533h-68.267c0-37.702-30.564-68.267-68.267-68.267v-68.267zM546.133 550.4c-37.702 0-68.267 30.564-68.267 68.267h-68.267c0-75.405 61.128-136.533 136.533-136.533v68.267zM238.933 891.733h614.4v68.267h-614.4v-68.267zM887.467 857.6v-819.2h68.267v819.2h-68.267zM853.333 4.267h-614.4v-68.267h614.4v68.267zM204.8 38.4v819.2h-68.267v-819.2h68.267zM238.933 4.267c-18.851 0-34.133 15.285-34.133 34.133h-68.267c0-56.552 45.846-102.4 102.4-102.4v68.267zM887.467 38.4c0-18.848-15.285-34.133-34.133-34.133v-68.267c56.552 0 102.4 45.848 102.4 102.4h-68.267zM853.333 891.733c18.848 0 34.133-15.282 34.133-34.133h68.267c0 56.554-45.848 102.4-102.4 102.4v-68.267zM238.933 960c-56.554 0-102.4-45.846-102.4-102.4h68.267c0 18.851 15.282 34.133 34.133 34.133v68.267zM273.067 686.933h-204.8v-68.267h204.8v68.267zM273.067 277.333h-204.8v-68.267h204.8v68.267z" />
<glyph unicode="&#xe904;" glyph-name="add-small" d="M546.133 209.067h-68.267v204.8h-204.8v68.267h204.8v204.8h68.267v-204.8h204.8v-68.267h-204.8z" />
<glyph unicode="&#xe905;" glyph-name="adjust-horizontal" d="M887.467-64h-204.8v136.533h-682.667v68.267h682.667v136.533h204.8v-136.533h136.533v-68.267h-136.533v-136.533zM750.933 4.267h68.267v204.8h-68.267v-204.8zM341.333 277.333h-204.8v136.533h-136.533v68.267h136.533v136.533h204.8v-136.533h682.667v-68.267h-682.667v-136.533zM204.8 345.6h68.267v204.8h-68.267v-204.8zM614.4 618.667h-204.8v136.533h-409.6v68.267h409.6v136.533h204.8v-136.533h409.6v-68.267h-409.6v-136.533zM477.867 686.933h68.267v204.8h-68.267v-204.8z" />
<glyph unicode="&#xe906;" glyph-name="adjust-horizontal-alt" d="M716.8 4.267c-81.92 0-150.187 61.44-170.667 136.533h-546.133v68.267h546.133c13.653 75.093 81.92 136.533 170.667 136.533s150.187-61.44 170.667-136.533h136.533v-68.267h-136.533c-20.48-75.093-88.747-136.533-170.667-136.533zM614.4 174.933c0-54.613 47.787-102.4 102.4-102.4s102.4 47.787 102.4 102.4-47.787 102.4-102.4 102.4-102.4-47.787-102.4-102.4zM307.2 550.4c-81.92 0-150.187 61.44-163.84 136.533h-143.36v68.267h143.36c13.653 75.093 81.92 136.533 163.84 136.533s150.187-61.44 163.84-136.533h552.96v-68.267h-552.96c-13.653-75.093-81.92-136.533-163.84-136.533zM204.8 721.067c0-54.613 47.787-102.4 102.4-102.4s102.4 47.787 102.4 102.4-47.787 102.4-102.4 102.4-102.4-47.787-102.4-102.4z" />
<glyph unicode="&#xe907;" glyph-name="adjust-vertical" d="M887.467-64h-68.267v682.667h-136.533v204.8h136.533v136.533h68.267v-136.533h136.533v-204.8h-136.533v-682.667zM750.933 686.933h204.8v68.267h-204.8v-68.267zM546.133-64h-68.267v136.533h-136.533v204.8h136.533v682.667h68.267v-682.667h136.533v-204.8h-136.533v-136.533zM409.6 140.8h204.8v68.267h-204.8v-68.267zM204.8-64h-68.267v409.6h-136.533v204.8h136.533v409.6h68.267v-409.6h136.533v-204.8h-136.533v-409.6zM68.267 413.867h204.8v68.267h-204.8v-68.267z" />
<glyph unicode="&#xe908;" glyph-name="adjust-vertical-alt" d="M819.2-64h-68.267v552.96c-75.093 13.653-136.533 81.92-136.533 163.84s61.44 150.187 136.533 163.84v143.36h68.267v-143.36c75.093-13.653 136.533-81.92 136.533-163.84s-61.44-150.187-136.533-163.84v-552.96zM785.067 755.2c-54.613 0-102.4-47.787-102.4-102.4s47.787-102.4 102.4-102.4 102.4 47.787 102.4 102.4-47.787 102.4-102.4 102.4zM273.067-64h-68.267v136.533c-75.093 13.653-136.533 81.92-136.533 170.667s61.44 150.187 136.533 170.667v546.133h68.267v-546.133c75.093-13.653 136.533-81.92 136.533-170.667s-61.44-150.187-136.533-170.667v-136.533zM238.933 345.6c-54.613 0-102.4-47.787-102.4-102.4s47.787-102.4 102.4-102.4 102.4 47.787 102.4 102.4-47.787 102.4-102.4 102.4z" />
<glyph unicode="&#xe909;" glyph-name="airplay" d="M785.067 4.267h-546.133c-13.653 0-27.307 6.827-34.133 20.48s0 27.307 6.827 34.133l273.067 273.067c13.653 13.653 40.96 13.653 54.613 6.827l273.067-273.067c6.827-6.827 13.653-27.307 6.827-34.133s-20.48-27.307-34.133-27.307zM320.853 72.533h382.293l-191.147 191.147-191.147-191.147zM989.867 140.8h-170.667v68.267h136.533v614.4h-887.467v-614.4h136.533v-68.267h-170.667c-20.48 0-34.133 13.653-34.133 34.133v682.667c0 20.48 13.653 34.133 34.133 34.133h955.733c20.48 0 34.133-13.653 34.133-34.133v-682.667c0-20.48-13.653-34.133-34.133-34.133z" />
<glyph unicode="&#xe90a;" glyph-name="airpods" d="M750.933-64h-204.8v785.067c0 61.44 27.307 122.88 75.093 163.84s109.227 61.44 170.667 54.613h20.48c34.133-6.827 75.093-20.48 102.4-40.96l109.227-95.573v-170.667l-109.227-81.92c-27.307-20.48-68.267-34.133-102.4-40.96h-20.48c-13.653 0-27.307 0-34.133 0v-573.44zM614.4 4.267h68.267v518.827c-20.48 6.827-47.787 20.48-61.44 34.133 0 0 0 0-6.827 6.827v-559.787zM757.76 864.427c-34.133 0-68.267-13.653-95.573-34.133-27.307-27.307-47.787-68.267-47.787-109.227s20.48-81.92 47.787-109.227c34.133-27.307 75.093-40.96 116.053-34.133h20.48c27.307 0 47.787 13.653 68.267 27.307l88.747 61.44v102.4l-81.92 61.44c-20.48 13.653-47.787 27.307-68.267 27.307h-20.48c-13.653 6.827-20.48 6.827-27.307 6.827zM477.867-64h-204.8v573.44c-13.653 0-27.307 0-34.133 0h-20.48c-40.96 6.827-75.093 20.48-109.227 40.96l-109.227 81.92v170.667l109.227 88.747c27.307 20.48 68.267 34.133 102.4 40.96h20.48c61.44 6.827 122.88-13.653 170.667-54.613 47.787-34.133 75.093-95.573 75.093-157.013v-785.067zM341.333 4.267h68.267v559.787c0 0 0 0-6.827-6.827-13.653-13.653-40.96-27.307-61.44-34.133v-518.827zM68.267 666.453l81.92-61.44c20.48-13.653 47.787-27.307 68.267-27.307h20.48c40.96-6.827 81.92 6.827 116.053 34.133s54.613 68.267 54.613 109.227-20.48 81.92-47.787 109.227c-34.133 27.307-75.093 40.96-116.053 34.133h-20.48c-27.307 0-47.787-13.653-68.267-27.307l-88.747-68.267v-102.4zM887.467 686.933h-136.533v68.267h136.533v-68.267zM273.067 686.933h-136.533v68.267h136.533v-68.267z" />
<glyph unicode="&#xe90b;" glyph-name="alarm" d="M512-64c-245.76 0-443.733 197.973-443.733 443.733s197.973 443.733 443.733 443.733 443.733-197.973 443.733-443.733-197.973-443.733-443.733-443.733zM512 755.2c-204.8 0-375.467-170.667-375.467-375.467s170.667-375.467 375.467-375.467c204.8 0 375.467 170.667 375.467 375.467s-170.667 375.467-375.467 375.467zM682.667 345.6h-204.8v273.067h68.267v-204.8h136.533v-68.267zM962.56 693.76l-204.8 204.8 47.787 47.787 204.8-204.8-47.787-47.787zM61.44 693.76l-54.613 54.613 204.8 204.8 47.787-47.787-197.973-211.627z" />
<glyph unicode="&#xe90c;" glyph-name="alien" d="M512-64c-54.613 0-102.4 13.653-150.187 47.787-81.92 54.613-143.36 122.88-177.493 177.493-95.573 136.533-129.707 293.547-109.227 464.213 27.307 204.8 197.973 334.507 436.907 334.507s409.6-129.707 436.907-334.507c27.307-170.667-6.827-327.68-109.227-464.213-34.133-54.613-95.573-129.707-177.493-177.493-47.787-34.133-95.573-47.787-150.187-47.787zM512 891.733c-204.8 0-341.333-102.4-368.64-273.067-20.48-150.187 6.827-293.547 95.573-416.427 34.133-47.787 88.747-116.053 157.013-157.013 75.093-47.787 157.013-47.787 232.107 0 68.267 47.787 122.88 109.227 157.013 157.013 88.747 122.88 116.053 266.24 95.573 416.427-27.307 170.667-163.84 273.067-368.64 273.067zM512 113.493c-20.48 0-40.96 13.653-61.44 27.307-6.827 6.827-13.653 6.827-13.653 6.827l-34.133 13.653 27.307 61.44 27.307-13.653c6.827 0 13.653-6.827 27.307-13.653 6.827-6.827 20.48-13.653 27.307-13.653 0 0 13.653 13.653 27.307 13.653 6.827 6.827 20.48 13.653 27.307 13.653l34.133 13.653 27.307-61.44-34.133-13.653c-6.827 0-13.653-6.827-13.653-6.827-27.307-13.653-47.787-27.307-68.267-27.307zM614.4 366.080l-47.787 47.787 150.187 150.187 47.787-47.787-150.187-150.187zM409.6 366.080l-143.36 150.187 47.787 47.787 143.36-150.187-47.787-47.787z" />
<glyph unicode="&#xe90d;" glyph-name="align-bottom" d="M1024-64h-1024v68.267h1024v-68.267zM819.2 140.8h-273.067v546.133h273.067v-546.133zM614.4 209.067h136.533v409.6h-136.533v-409.6zM477.867 140.8h-273.067v819.2h273.067v-819.2zM273.067 209.067h136.533v682.667h-136.533v-682.667z" />
<glyph unicode="&#xe90e;" glyph-name="align-center-horizontal" d="M546.133-64h-68.267v204.8h-409.6v273.067h409.6v68.267h-238.933v273.067h238.933v204.8h68.267v-204.8h238.933v-273.067h-238.933v-68.267h409.6v-273.067h-409.6v-204.8zM136.533 209.067h750.933v136.533h-750.933v-136.533zM307.2 550.4h409.6v136.533h-409.6v-136.533z" />
<glyph unicode="&#xe90f;" glyph-name="align-center-vertical" d="M477.867 4.267h-273.067v409.6h-204.8v68.267h204.8v409.6h273.067v-409.6h68.267v238.933h273.067v-238.933h204.8v-68.267h-204.8v-238.933h-273.067v238.933h-68.267v-409.6zM273.067 72.533h136.533v750.933h-136.533v-750.933zM614.4 243.2h136.533v409.6h-136.533v-409.6z" />
<glyph unicode="&#xe910;" glyph-name="align-left" d="M68.267-64h-68.267v1024h68.267v-1024zM1024 140.8h-819.2v273.067h819.2v-273.067zM273.067 209.067h682.667v136.533h-682.667v-136.533zM750.933 482.133h-546.133v273.067h546.133v-273.067zM273.067 550.4h409.6v136.533h-409.6v-136.533z" />
<glyph unicode="&#xe911;" glyph-name="align-right" d="M1024-64h-68.267v1024h68.267v-1024zM819.2 140.8h-819.2v273.067h819.2v-273.067zM68.267 209.067h682.667v136.533h-682.667v-136.533zM819.2 482.133h-546.133v273.067h546.133v-273.067zM341.333 550.4h409.6v136.533h-409.6v-136.533z" />
<glyph unicode="&#xe912;" glyph-name="align-text-center" d="M819.2 140.8h-614.4v68.267h614.4v-68.267zM682.667 413.867h-341.333v68.267h341.333v-68.267zM1024 686.933h-1024v68.267h1024v-68.267z" />
<glyph unicode="&#xe913;" glyph-name="align-text-justify" d="M1024 140.8h-1024v68.267h1024v-68.267zM1024 413.867h-1024v68.267h1024v-68.267zM1024 686.933h-1024v68.267h1024v-68.267z" />
<glyph unicode="&#xe914;" glyph-name="align-text-left" d="M614.4 140.8h-614.4v68.267h614.4v-68.267zM409.6 413.867h-409.6v68.267h409.6v-68.267zM1024 686.933h-1024v68.267h1024v-68.267z" />
<glyph unicode="&#xe915;" glyph-name="align-text-right" d="M1024 140.8h-614.4v68.267h614.4v-68.267zM1024 413.867h-409.6v68.267h409.6v-68.267zM1024 686.933h-1024v68.267h1024v-68.267z" />
<glyph unicode="&#xe916;" glyph-name="align-top" d="M477.867-64h-273.067v819.2h273.067v-819.2zM273.067 4.267h136.533v682.667h-136.533v-682.667zM819.2 209.067h-273.067v546.133h273.067v-546.133zM614.4 277.333h136.533v409.6h-136.533v-409.6zM1024 891.733h-1024v68.267h1024v-68.267z" />
<glyph unicode="&#xe917;" glyph-name="anchor" d="M546.133-64h-68.267c-266.24 20.48-477.867 238.933-477.867 512v34.133h204.8v-68.267h-136.533c13.653-218.453 191.147-389.12 409.6-409.6v614.4c-75.093 20.48-136.533 88.747-136.533 170.667 0 95.573 75.093 170.667 170.667 170.667s170.667-75.093 170.667-170.667c0-81.92-61.44-150.187-136.533-163.84v-614.4c218.453 13.653 389.12 191.147 409.6 409.6h-136.533v61.44h204.8v-34.133c0-273.067-211.627-491.52-477.867-512v0zM512 686.933c54.613 0 102.4 47.787 102.4 102.4s-47.787 102.4-102.4 102.4-102.4-47.787-102.4-102.4c0-54.613 47.787-102.4 102.4-102.4z" />
<glyph unicode="&#xe918;" glyph-name="android" d="M955.733 72.533h-887.467v170.667c0 150.187 75.093 279.893 184.32 361.813l-109.227 163.84 54.613 40.96 116.053-170.667c122.88 61.44 279.893 61.44 402.773 0l116.053 170.667 54.613-40.96-109.227-163.84c109.227-81.92 184.32-211.627 184.32-361.813v-170.667zM136.533 140.8h750.933v102.4c0 204.8-170.667 375.467-375.467 375.467s-375.467-170.667-375.467-375.467v-102.4zM750.933 277.333h-68.267v68.267h68.267v-68.267zM341.333 277.333h-68.267v68.267h68.267v-68.267z" />
<glyph unicode="&#xe919;" glyph-name="angular" d="M512 925.867l9.377 32.82c-6.129 1.751-12.625 1.751-18.754 0l9.377-32.82zM34.133 789.333l-9.377 32.82c-16.013-4.575-26.386-20.038-24.547-36.59l33.925 3.77zM102.4 174.933l-33.924-3.768c1.279-11.51 8.303-21.586 18.659-26.761l15.265 30.529zM512-29.867l-15.265-30.529c9.61-4.806 20.92-4.806 30.53 0l-15.265 30.529zM921.6 174.933l15.264-30.529c10.356 5.175 17.381 15.251 18.657 26.761l-33.922 3.768zM989.867 789.333l33.922-3.77c1.843 16.552-8.533 32.014-24.542 36.59l-9.38-32.82zM512 755.2l31.272 13.681-31.272 71.478-31.272-71.478 31.272-13.681zM502.623 958.687l-477.867-136.533 18.754-65.64 477.867 136.533-18.754 65.64zM0.209 785.564l68.267-614.399 67.849 7.537-68.267 614.401-67.849-7.539zM87.135 144.404l409.6-204.8 30.53 61.058-409.6 204.8-30.53-61.058zM527.265-60.396l409.599 204.8-30.529 61.058-409.601-204.8 30.53-61.058zM955.522 171.165l68.267 614.399-67.843 7.539-68.267-614.401 67.843-7.537zM999.247 822.153l-477.869 136.533-18.754-65.64 477.864-136.533 18.76 65.64zM304.338 195.386l238.933 546.133-62.543 27.363-238.933-546.134 62.543-27.361zM480.728 741.519l238.932-546.133 62.546 27.361-238.935 546.134-62.543-27.363zM341.333 345.6h341.333v68.267h-341.333v-68.267z" />
<glyph unicode="&#xe91a;" glyph-name="anja" d="M614.909 659.593v0zM201.713 404.455v0zM512 4.267c-111.050 0-211.684 65.399-256.786 166.878l-62.383-27.723c56.059-126.136 181.14-207.421 319.169-207.421v68.267zM768.785 171.145c-45.104-101.478-145.735-166.878-256.785-166.878v-68.267c138.028 0 263.107 81.285 319.167 207.421l-62.382 27.723zM136.533-64v614.4h-68.267v-614.4h68.267zM512 891.733c207.367 0 375.467-168.102 375.467-375.467h68.267c0 245.067-198.663 443.733-443.733 443.733v-68.267zM136.533 516.267c0 207.365 168.102 375.467 375.467 375.467v68.267c-245.067 0-443.733-198.666-443.733-443.733h68.267zM887.467 516.267v-580.267h68.267v580.267h-68.267zM612.639 625.535l101.888-6.793 4.547 68.115-101.893 6.793-4.541-68.116zM750.933 652.8v102.4h-68.267v-102.4h68.267zM233.187 391.246c61.762 147.158 211.823 245.464 379.452 234.289l4.541 68.116c-197.557 13.17-374.222-102.724-446.941-275.986l62.947-26.419zM692.661 628.664c32.085-32.081 90.774-101.734 115.289-228.165l67.017 12.995c-27.791 143.314-95.218 224.625-134.028 263.441l-48.278-48.271zM443.733 72.533h102.4v68.267h-102.4v-68.267zM546.133 72.533c75.405 0 136.533 61.126 136.533 136.533h-68.267c0-37.704-30.564-68.267-68.267-68.267v-68.267zM853.333 345.6h-136.533v-68.267h136.533v68.267zM580.267 413.867h238.933v68.267h-238.933v-68.267zM238.933 413.867h204.8v68.267h-204.8v-68.267zM443.733 413.867h136.533v68.267h-136.533v-68.267zM307.2 345.6h-136.533v-68.267h136.533v68.267zM409.6 448c0-56.554-45.846-102.4-102.4-102.4v-68.267c94.256 0 170.667 76.41 170.667 170.667h-68.267zM716.8 345.6c-56.554 0-102.4 45.846-102.4 102.4h-68.267c0-94.256 76.41-170.667 170.667-170.667v68.267zM255.214 171.145c-33.846 76.151-49.809 153.906-22.028 220.101l-62.947 26.419c-38.93-92.757-13.573-192.869 22.592-274.243l62.383 27.723zM831.167 143.421c36.113 81.244 62.102 175.696 43.8 270.073l-67.017-12.995c14.432-74.41-5.448-153.49-39.165-229.355l62.382-27.723z" />
<glyph unicode="&#xe91b;" glyph-name="anti-clockwise" d="M443.733 789.422l-24.134 24.138-24.141-24.138 24.141-24.138 24.134 24.138zM512 823.55h-34.133v-68.267h34.133v68.267zM136.533 380.084v34.133h-68.267v-34.133h68.267zM556.064 950.004l-136.465-136.445 48.269-48.275 136.465 136.445-48.269 48.275zM419.599 765.284l136.465-136.444 48.269 48.275-136.465 136.444-48.269-48.275zM512 755.283c207.34 0 375.467-168.052 375.467-375.2h68.267c0 244.892-198.738 443.466-443.733 443.466v-68.267zM887.467 380.084c0-207.15-168.127-375.202-375.467-375.202v-68.267c244.995 0 443.733 198.574 443.733 443.469h-68.267zM512 4.881c-207.337 0-375.467 168.052-375.467 375.202h-68.267c0-244.895 198.736-443.469 443.733-443.469v68.267z" />
<glyph unicode="&#xe91c;" glyph-name="apple" d="M532.48 707.413c-27.307 0-54.613 20.48-54.613 54.613 0 109.227 88.747 197.973 197.973 197.973 34.133 0 54.613-27.307 54.613-54.613 0-109.227-88.747-197.973-197.973-197.973zM662.187 891.733c-61.44-6.827-109.227-54.613-116.053-116.053 61.44 0 109.227 54.613 116.053 116.053zM675.84-64c-34.133 0-68.267 13.653-102.4 34.133-27.307 20.48-61.44 20.48-95.573 0s-75.093-34.133-109.227-34.133c-122.88 0-266.24 307.2-266.24 457.387 0 184.32 102.4 314.027 245.76 314.027 61.44 0 122.88-6.827 170.667-27.307 6.827-6.827 20.48-6.827 27.307 0 40.96 20.48 88.747 27.307 157.013 27.307 81.92 0 150.187-40.96 211.627-116.053 20.48-27.307 13.653-61.44-13.653-81.92-47.787-34.133-68.267-75.093-68.267-116.053s20.48-81.92 68.267-116.053v0c20.48-13.653 27.307-47.787 13.653-75.093-95.573-184.32-163.84-266.24-238.933-266.24zM525.653 52.053c27.307 0 61.44-6.827 88.747-27.307 20.48-13.653 40.96-20.48 61.44-20.48 27.307 0 81.92 40.96 170.667 218.453-61.44 47.787-88.747 102.4-88.747 163.84s27.307 116.053 88.747 163.84c-40.96 54.613-95.573 81.92-150.187 81.92-47.787 6.827-95.573 0-122.88-13.653s-54.613-13.653-81.92-6.827c-40.96 20.48-88.747 27.307-143.36 27.307-102.4 0-177.493-102.4-177.493-245.76 0-150.187 143.36-389.12 197.973-389.12 20.48 0 47.787 6.827 75.093 27.307 27.307 13.653 54.613 20.48 81.92 20.48zM853.333 215.893v0 0c0 0 0 0 0 0z" />
<glyph unicode="&#xe91d;" glyph-name="appointments" d="M921.6-64h-819.2c-54.613 0-102.4 47.787-102.4 102.4v682.667c0 54.613 47.787 102.4 102.4 102.4h102.4v136.533h68.267v-136.533h477.867v136.533h68.267v-136.533h102.4c54.613 0 102.4-47.787 102.4-102.4v-682.667c0-54.613-47.787-102.4-102.4-102.4zM102.4 755.2c-20.48 0-34.133-13.653-34.133-34.133v-682.667c0-20.48 13.653-34.133 34.133-34.133h819.2c20.48 0 34.133 13.653 34.133 34.133v682.667c0 20.48-13.653 34.133-34.133 34.133h-102.4v-136.533h-68.267v136.533h-477.867v-136.533h-68.267v136.533h-102.4zM819.2 209.067h-204.8v68.267h204.8v-68.267zM409.6 209.067h-204.8v68.267h204.8v-68.267zM819.2 413.867h-204.8v68.267h204.8v-68.267zM409.6 413.867h-204.8v68.267h204.8v-68.267z" />
<glyph unicode="&#xe91e;" glyph-name="archive" d="M853.333-64h-682.667c-54.613 0-102.4 47.787-102.4 102.4v580.267h-68.267v341.333h1024v-341.333h-68.267v-580.267c0-54.613-47.787-102.4-102.4-102.4zM136.533 618.667v-580.267c0-20.48 13.653-34.133 34.133-34.133h682.667c20.48 0 34.133 13.653 34.133 34.133v580.267h-750.933zM955.733 686.933v204.8h-887.467v-204.8h887.467zM682.667 345.6h-341.333v68.267h341.333v-68.267z" />
<glyph unicode="&#xe91f;" glyph-name="area-chart" d="M34.133-29.867h-34.133v-34.133h34.133v34.133zM443.733 584.533l27.307 20.48c-6.646 8.862-17.181 13.948-28.254 13.64s-21.309-5.969-27.454-15.187l28.401-18.934zM648.533 311.467l-27.307-20.48c6.53-8.707 16.821-13.776 27.703-13.651 10.883 0.127 21.053 5.435 27.379 14.292l-27.776 19.84zM0 960v-989.867h68.267v989.867h-68.267zM34.133-64h989.867v68.267h-989.867v-68.267zM199.068 155.996l273.067 409.603-56.802 37.868-273.067-409.597 56.802-37.874zM416.427 564.053l204.8-273.067 54.613 40.96-204.8 273.067-54.613-40.96zM676.309 291.627l341.335 477.867-55.555 39.679-341.331-477.867 55.551-39.679z" />
<glyph unicode="&#xe920;" glyph-name="area-chart-alt" d="M34.133-29.867h-34.133v-34.133h34.133v34.133zM136.533 174.933v-34.133h68.267v34.133h-68.267zM1024 789.333v34.133h-68.267v-34.133h68.267zM0 960v-989.867h68.267v989.867h-68.267zM34.133-64h989.867v68.267h-989.867v-68.267zM204.8 174.933c0 99.287 16.642 196.601 48.258 267.737 32.13 72.294 74.495 107.73 122.408 107.73v68.267c-88.62 0-148.655-66.964-184.792-148.27-36.65-82.464-54.142-189.951-54.142-295.463h68.267zM375.467 550.4c21.897 0 43.821-10.76 68.581-33.615 24.999-23.076 48.691-54.482 74.779-89.265 25.113-33.483 52.621-70.344 83.088-98.468 30.706-28.345 68.516-51.719 114.885-51.719v68.267c-21.9 0-43.821 10.76-68.581 33.615-24.999 23.076-48.691 54.482-74.779 89.265-25.113 33.483-52.621 70.344-83.088 98.468-30.706 28.345-68.516 51.719-114.885 51.719v-68.267zM716.8 277.333c83.504 0 161.287 52.070 216.59 139.639 55.473 87.824 90.61 214.043 90.61 372.361h-68.267c0-148.883-33.13-261.597-80.056-335.906-47.097-74.564-105.847-107.827-158.877-107.827v-68.267z" />
<glyph unicode="&#xe921;" glyph-name="arrow" d="M34.133 925.867v34.133c-18.851 0-34.133-15.282-34.133-34.133h34.133zM34.133 652.8h-34.133c0-13.806 8.316-26.252 21.071-31.535s27.436-2.363 37.198 7.399l-24.136 24.136zM307.2 925.867l24.136-24.136c9.762 9.762 12.683 24.443 7.399 37.198s-17.73 21.071-31.535 21.071v-34.133zM146.531 765.198l819.197-819.203 48.278 48.278-819.203 819.197-48.271-48.271zM0 925.867v-273.067h68.267v273.067h-68.267zM58.269 628.664l273.066 273.066-48.271 48.272-273.067-273.067 48.272-48.271zM307.2 960h-273.067v-68.267h273.067v68.267z" />
<glyph unicode="&#xe922;" glyph-name="arrow-down" d="M539.307 11.093l-27.307 27.307-27.307-27.307-273.067 273.067 54.613 54.613 211.627-218.453v771.413h68.267v-771.413l211.627 218.453 54.613-54.613z" />
<glyph unicode="&#xe923;" glyph-name="arrow-down-circle" d="M399.602 403.869l-24.136 24.136-48.272-48.272 24.136-24.136 48.271 48.271zM512 243.2l-24.136-24.139 24.136-24.132 24.136 24.132-24.136 24.139zM672.669 355.598l24.136 24.136-48.271 48.272-24.136-24.136 48.271-48.271zM34.133 448v0zM512 925.867v0zM512-29.867v0zM989.867 448v0zM351.331 355.598l136.533-136.537 48.271 48.278-136.533 136.53-48.271-48.271zM536.136 219.061l136.533 136.537-48.271 48.271-136.533-136.53 48.271-48.278zM546.133 243.2v443.733h-68.267v-443.733h68.267zM68.267 448c0 245.067 198.666 443.733 443.733 443.733v68.267c-282.77 0-512-229.23-512-512h68.267zM512 4.267c-245.067 0-443.733 198.663-443.733 443.733h-68.267c0-282.767 229.23-512 512-512v68.267zM955.733 448c0-245.071-198.663-443.733-443.733-443.733v-68.267c282.767 0 512 229.233 512 512h-68.267zM1024 448c0 282.769-229.233 512-512 512v-68.267c245.071 0 443.733-198.666 443.733-443.733h68.267z" />
<glyph unicode="&#xe924;" glyph-name="arrow-down-small" d="M672.669 355.598l24.136 24.136-48.271 48.272-24.136-24.136 48.271-48.271zM512 243.2l-24.136-24.139 24.136-24.132 24.136 24.132-24.136 24.139zM399.602 403.869l-24.136 24.136-48.272-48.272 24.136-24.136 48.271 48.271zM624.398 403.869l-136.533-136.53 48.271-48.278 136.533 136.537-48.271 48.271zM536.136 267.339l-136.533 136.53-48.271-48.271 136.533-136.537 48.271 48.278zM546.133 243.2v443.733h-68.267v-443.733h68.267z" />
<glyph unicode="&#xe925;" glyph-name="arrow-left" d="M348.16 147.627l-273.067 273.067 27.307 27.307-27.307 27.307 273.067 273.067 54.613-54.613-218.453-211.627h771.413v-68.267h-771.413l218.453-211.627z" />
<glyph unicode="&#xe926;" glyph-name="arrow-left-circle" d="M467.869 560.398l24.136 24.136-48.272 48.272-24.136-24.136 48.271-48.271zM307.2 448l-24.136 24.136-24.136-24.136 24.136-24.136 24.136 24.136zM419.598 287.331l24.136-24.136 48.272 48.271-24.136 24.136-48.271-48.271zM512 925.867v0zM989.867 448v0zM34.133 448v0zM512-29.867v0zM419.598 608.669l-136.533-136.533 48.271-48.271 136.533 136.533-48.271 48.271zM283.064 423.864l136.533-136.533 48.271 48.271-136.533 136.533-48.271-48.271zM307.2 413.867h443.733v68.267h-443.733v-68.267zM512 891.733c245.071 0 443.733-198.666 443.733-443.733h68.267c0 282.77-229.233 512-512 512v-68.267zM68.267 448c0 245.067 198.666 443.733 443.733 443.733v68.267c-282.77 0-512-229.23-512-512h68.267zM512 4.267c-245.067 0-443.733 198.663-443.733 443.733h-68.267c0-282.767 229.23-512 512-512v68.267zM512-64c282.767 0 512 229.233 512 512h-68.267c0-245.071-198.663-443.733-443.733-443.733v-68.267z" />
<glyph unicode="&#xe927;" glyph-name="arrow-left-small" d="M419.598 287.331l24.136-24.136 48.272 48.271-24.136 24.136-48.271-48.271zM307.2 448l-24.136 24.136-24.136-24.136 24.136-24.136 24.136 24.136zM467.869 560.398l24.136 24.136-48.272 48.272-24.136-24.136 48.271-48.271zM467.869 335.602l-136.533 136.533-48.271-48.271 136.533-136.533 48.271 48.271zM331.336 423.864l136.533 136.533-48.271 48.271-136.533-136.533 48.271-48.271zM307.2 413.867h443.733v68.267h-443.733v-68.267z" />
<glyph unicode="&#xe928;" glyph-name="arrow-right" d="M675.84 147.627l-54.613 54.613 218.453 211.627h-771.413v68.267h771.413l-218.453 211.627 54.613 54.613 273.067-273.067-27.307-27.307 27.307-27.307z" />
<glyph unicode="&#xe929;" glyph-name="arrow-right-circle" d="M556.131 335.602l-24.136-24.136 48.272-48.271 24.136 24.136-48.271 48.271zM716.8 448l24.139-24.136 24.132 24.136-24.132 24.136-24.139-24.136zM604.402 608.669l-24.136 24.136-48.272-48.272 24.136-24.136 48.271 48.271zM604.402 287.331l136.537 136.533-48.278 48.271-136.53-136.533 48.271-48.271zM740.939 472.136l-136.537 136.533-48.271-48.271 136.53-136.533 48.278 48.271zM716.8 482.133h-443.733v-68.267h443.733v68.267zM512 4.267c-245.067 0-443.733 198.663-443.733 443.733h-68.267c0-282.767 229.23-512 512-512v68.267zM955.733 448c0-245.071-198.663-443.733-443.733-443.733v-68.267c282.767 0 512 229.233 512 512h-68.267zM512 891.733c245.071 0 443.733-198.666 443.733-443.733h68.267c0 282.77-229.233 512-512 512v-68.267zM512 960c-282.77 0-512-229.23-512-512h68.267c0 245.067 198.666 443.733 443.733 443.733v68.267z" />
<glyph unicode="&#xe92a;" glyph-name="arrow-right-small" d="M556.131 335.602l-24.136-24.136 48.272-48.271 24.136 24.136-48.271 48.271zM716.8 448l24.139-24.136 24.132 24.136-24.132 24.136-24.139-24.136zM604.402 608.669l-24.136 24.136-48.272-48.272 24.136-24.136 48.271 48.271zM604.402 287.331l136.537 136.533-48.278 48.271-136.53-136.533 48.271-48.271zM740.939 472.136l-136.537 136.533-48.271-48.271 136.53-136.533 48.278 48.271zM716.8 482.133h-443.733v-68.267h443.733v68.267z" />
<glyph unicode="&#xe92b;" glyph-name="arrow-up" d="M512 857.6l24.136 24.136-24.136 24.136-24.136-24.136 24.136-24.136zM487.864 833.464l273.063-273.067 48.278 48.271-273.070 273.067-48.271-48.271zM487.864 881.736l-273.067-273.067 48.271-48.271 273.067 273.067-48.271 48.271zM477.867 857.6v-853.333h68.267v853.333h-68.267z" />
<glyph unicode="&#xe92c;" glyph-name="arrow-up-circle" d="M624.398 492.131l24.136-24.136 48.271 48.272-24.136 24.136-48.271-48.271zM512 652.8l24.136 24.136-24.136 24.136-24.136-24.136 24.136-24.136zM351.331 540.402l-24.136-24.136 48.272-48.272 24.136 24.136-48.271 48.271zM989.867 448v0zM512-29.867v0zM512 925.867v0zM34.133 448v0zM672.669 540.402l-136.533 136.533-48.271-48.271 136.533-136.533 48.271 48.271zM487.864 676.936l-136.533-136.533 48.271-48.271 136.533 136.533-48.271 48.271zM477.867 652.8v-443.733h68.267v443.733h-68.267zM955.733 448c0-245.071-198.663-443.733-443.733-443.733v-68.267c282.767 0 512 229.233 512 512h-68.267zM512 891.733c245.071 0 443.733-198.666 443.733-443.733h68.267c0 282.77-229.233 512-512 512v-68.267zM68.267 448c0 245.067 198.666 443.733 443.733 443.733v68.267c-282.77 0-512-229.23-512-512h68.267zM0 448c0-282.767 229.231-512 512-512v68.267c-245.067 0-443.733 198.663-443.733 443.733h-68.267z" />
<glyph unicode="&#xe92d;" glyph-name="arrow-up-small" d="M351.331 540.402l-24.136-24.136 48.272-48.272 24.136 24.136-48.271 48.271zM512 652.8l24.136 24.136-24.136 24.136-24.136-24.136 24.136-24.136zM624.398 492.131l24.136-24.136 48.271 48.272-24.136 24.136-48.271-48.271zM399.602 492.131l136.533 136.533-48.271 48.271-136.533-136.533 48.271-48.271zM487.864 628.664l136.533-136.533 48.271 48.271-136.533 136.533-48.271-48.271zM477.867 652.8v-443.733h68.267v443.733h-68.267z" />
<glyph unicode="&#xe92e;" glyph-name="artboard" d="M307.2 652.8v34.133c-18.851 0-34.133-15.282-34.133-34.133h34.133zM716.8 652.8h34.133c0 18.851-15.285 34.133-34.133 34.133v-34.133zM716.8 243.2v-34.133c18.848 0 34.133 15.285 34.133 34.133h-34.133zM307.2 243.2h-34.133c0-18.848 15.282-34.133 34.133-34.133v34.133zM273.067 960v-136.533h68.267v136.533h-68.267zM682.667 960v-136.533h68.267v136.533h-68.267zM0 618.667h136.533v68.267h-136.533v-68.267zM0 209.067h136.533v68.267h-136.533v-68.267zM887.467 618.667h136.533v68.267h-136.533v-68.267zM887.467 209.067h136.533v68.267h-136.533v-68.267zM273.067 72.533v-136.533h68.267v136.533h-68.267zM682.667 72.533v-136.533h68.267v136.533h-68.267zM307.2 618.667h409.6v68.267h-409.6v-68.267zM682.667 652.8v-409.6h68.267v409.6h-68.267zM716.8 277.333h-409.6v-68.267h409.6v68.267zM341.333 243.2v409.6h-68.267v-409.6h68.267z" />
<glyph unicode="&#xe92f;" glyph-name="at" d="M512-64c-279.893 0-512 232.107-512 512s232.107 512 512 512 512-232.107 512-512v-68.267c0-34.133-6.827-61.44-27.307-88.747-34.133-47.787-81.92-81.92-143.36-81.92-68.267 0-122.88 40.96-150.187 95.573-47.787-61.44-116.053-95.573-191.147-95.573-129.707 0-238.933 109.227-238.933 238.933s109.227 238.933 238.933 238.933 238.933-109.227 238.933-238.933v-68.267c0-54.613 47.787-102.4 102.4-102.4 34.133 0 68.267 20.48 88.747 47.787 6.827 13.653 13.653 34.133 13.653 54.613v68.267c0 245.76-197.973 443.733-443.733 443.733s-443.733-197.973-443.733-443.733 197.973-443.733 443.733-443.733c88.747 0 177.493 27.307 252.587 81.92l40.96-54.613c-88.747-61.44-191.147-95.573-293.547-95.573zM512 618.667c-95.573 0-170.667-75.093-170.667-170.667s75.093-170.667 170.667-170.667c95.573 0 170.667 75.093 170.667 170.667s-75.093 170.667-170.667 170.667z" />
<glyph unicode="&#xe930;" glyph-name="attach" d="M320.853-64c-177.493 0-320.853 143.36-320.853 320.853 0 88.747 34.133 170.667 95.573 232.107l402.773 402.773c40.96 40.96 102.4 68.267 163.84 68.267 122.88 0 225.28-102.4 225.28-225.28 0-61.44-20.48-116.053-68.267-163.84l-395.947-395.947c-20.48-20.48-54.613-34.133-88.747-34.133-68.267 0-129.707 61.44-129.707 129.707 0 34.133 13.653 68.267 40.96 95.573l382.293 382.293 47.787-47.787-382.293-382.293c-13.653-13.653-20.48-27.307-20.48-47.787 0-34.133 27.307-61.44 61.44-61.44 13.653 0 34.133 6.827 40.96 20.48l395.947 389.12c34.133 34.133 47.787 68.267 47.787 116.053 0 88.747-68.267 157.013-157.013 157.013-47.787 0-81.92-13.653-116.053-47.787l-402.773-402.773c-47.787-47.787-75.093-116.053-75.093-184.32 0-136.533 116.053-252.587 252.587-252.587 68.267 0 129.707 27.307 177.493 75.093l395.947 395.947 47.787-47.787-395.947-395.947c-54.613-61.44-136.533-95.573-225.28-95.573z" />
<glyph unicode="&#xe931;" glyph-name="attachment" d="M853.333-64h-682.667c-54.613 0-102.4 47.787-102.4 102.4v375.467h68.267v-375.467c0-20.48 13.653-34.133 34.133-34.133h682.667c20.48 0 34.133 13.653 34.133 34.133v819.2c0 20.48-13.653 34.133-34.133 34.133h-443.733v68.267h443.733c54.613 0 102.4-47.787 102.4-102.4v-819.2c0-54.613-47.787-102.4-102.4-102.4zM750.933 209.067h-477.867v68.267h477.867v-68.267zM750.933 413.867h-273.067v68.267h273.067v-68.267zM170.667 482.133c-95.573 0-170.667 75.093-170.667 170.667v307.2h68.267v-307.2c0-54.613 47.787-102.4 102.4-102.4s102.4 47.787 102.4 102.4v204.8c0 20.48-13.653 34.133-34.133 34.133s-34.133-13.653-34.133-34.133v-238.933h-68.267v238.933c0 54.613 47.787 102.4 102.4 102.4s102.4-47.787 102.4-102.4v-204.8c0-95.573-75.093-170.667-170.667-170.667zM750.933 618.667h-273.067v68.267h273.067v-68.267z" />
<glyph unicode="&#xe932;" glyph-name="audio-cable" d="M443.733 857.6l-24.136 24.136c-6.401-6.401-9.998-15.083-9.998-24.136h34.133zM512 925.867l24.136 24.136c-13.33 13.33-34.942 13.33-48.271 0l24.136-24.136zM580.267 857.6h34.133c0 9.053-3.596 17.735-9.998 24.136l-24.136-24.136zM443.733 345.6h136.533v68.267h-136.533v-68.267zM614.4 311.467v-204.8h68.267v204.8h-68.267zM580.267 72.533h-136.533v-68.267h136.533v68.267zM409.6 106.667v204.8h-68.267v-204.8h68.267zM443.733 72.533c-18.851 0-34.133 15.285-34.133 34.133h-68.267c0-56.552 45.846-102.4 102.4-102.4v68.267zM614.4 106.667c0-18.848-15.282-34.133-34.133-34.133v-68.267c56.554 0 102.4 45.848 102.4 102.4h-68.267zM580.267 345.6c18.851 0 34.133-15.282 34.133-34.133h68.267c0 56.554-45.846 102.4-102.4 102.4v-68.267zM443.733 413.867c-56.554 0-102.4-45.846-102.4-102.4h68.267c0 18.851 15.282 34.133 34.133 34.133v68.267zM477.867 379.733v341.333h-68.267v-341.333h68.267zM443.733 686.933h136.533v68.267h-136.533v-68.267zM546.133 721.067v-341.333h68.267v341.333h-68.267zM477.867 72.533v-136.533h68.267v136.533h-68.267zM477.867 721.067v136.533h-68.267v-136.533h68.267zM467.869 833.464l68.267 68.266-48.271 48.272-68.267-68.267 48.271-48.271zM487.864 901.731l68.267-68.266 48.271 48.271-68.267 68.267-48.271-48.272zM546.133 857.6v-136.533h68.267v136.533h-68.267z" />
<glyph unicode="&#xe933;" glyph-name="audio-document" d="M921.6 721.067h34.133v14.139l-9.994 9.997-24.139-24.136zM716.8 925.867l24.139 24.136-10.001 9.997h-14.138v-34.133zM512 652.8l27.307 20.48c-8.815 11.753-24.162 16.548-38.1 11.902s-23.34-17.689-23.34-32.382h34.133zM532.48 625.493v0zM853.333 4.267h-682.667v-68.267h682.667v68.267zM136.533 38.4v819.2h-68.267v-819.2h68.267zM887.467 721.067v-682.667h68.267v682.667h-68.267zM170.667 891.733h546.133v68.267h-546.133v-68.267zM692.661 901.731l204.8-204.8 48.278 48.271-204.8 204.8-48.278-48.272zM170.667 4.267c-18.851 0-34.133 15.285-34.133 34.133h-68.267c0-56.552 45.846-102.4 102.4-102.4v68.267zM853.333-64c56.552 0 102.4 45.848 102.4 102.4h-68.267c0-18.848-15.285-34.133-34.133-34.133v-68.267zM136.533 857.6c0 18.851 15.282 34.133 34.133 34.133v68.267c-56.554 0-102.4-45.846-102.4-102.4h68.267zM409.6 209.067c-37.702 0-68.267 30.563-68.267 68.267h-68.267c0-75.407 61.128-136.533 136.533-136.533v68.267zM477.867 277.333c0-37.704-30.564-68.267-68.267-68.267v-68.267c75.405 0 136.533 61.126 136.533 136.533h-68.267zM409.6 345.6c37.702 0 68.267-30.564 68.267-68.267h68.267c0 75.405-61.128 136.533-136.533 136.533v-68.267zM409.6 413.867c-75.405 0-136.533-61.128-136.533-136.533h68.267c0 37.702 30.564 68.267 68.267 68.267v68.267zM477.867 516.267v-238.933h68.267v238.933h-68.267zM546.133 482.133v170.667h-68.267v-170.667h68.267zM484.693 632.32l20.48-27.307 54.613 40.96-20.48 27.307-54.613-40.96zM505.173 605.013c58.016-77.355 149.066-122.88 245.76-122.88v68.267c-75.206 0-146.023 35.409-191.147 95.573l-54.613-40.96z" />
<glyph unicode="&#xe934;" glyph-name="azure" d="M238.933 140.8h-204.8c-13.653 0-20.48 6.827-27.307 13.653-6.827 13.653-6.827 20.48-6.827 34.133l204.8 477.867c0 6.827 6.827 6.827 6.827 13.653l273.067 273.067c13.653 6.827 34.133 6.827 47.787 0s13.653-27.307 13.653-40.96l-273.067-750.933c-6.827-13.653-20.48-20.48-34.133-20.48zM88.747 209.067h129.707l211.627 587.093-163.84-163.84-177.493-423.253zM989.867 4.267h-682.667c-13.653 0-34.133 13.653-34.133 27.307s6.827 34.133 20.48 40.96l361.813 122.88-170.667 232.107c-6.827 6.827-6.827 20.48-6.827 34.133l136.533 341.333c6.827 13.653 20.48 20.48 34.133 20.48s27.307-6.827 34.133-20.48l341.333-750.933c6.827-13.653 6.827-20.48 0-34.133-13.653-6.827-20.48-13.653-34.133-13.653zM518.827 72.533h416.427l-286.72 628.053-95.573-245.76 191.147-259.413c6.827-6.827 6.827-20.48 6.827-27.307s-13.653-20.48-20.48-20.48l-211.627-75.093z" />
<glyph unicode="&#xe935;" glyph-name="backspace" d="M307.2 106.667l-26.653-21.32c6.477-8.103 16.284-12.814 26.653-12.814v34.133zM34.133 448l-26.654 21.323c-9.973-12.466-9.973-30.18 0-42.646l26.654 21.323zM307.2 789.333v34.133c-10.369 0-20.176-4.713-26.653-12.81l26.653-21.323zM955.733 721.067v-546.133h68.267v546.133h-68.267zM921.6 140.8h-614.4v-68.267h614.4v68.267zM333.853 127.986l-273.066 341.337-53.307-42.646 273.067-341.33 53.307 42.639zM60.787 426.677l273.066 341.333-53.307 42.646-273.067-341.333 53.307-42.646zM307.2 755.2h614.4v68.267h-614.4v-68.267zM955.733 174.933c0-18.848-15.285-34.133-34.133-34.133v-68.267c56.552 0 102.4 45.848 102.4 102.4h-68.267zM1024 721.067c0 56.554-45.848 102.4-102.4 102.4v-68.267c18.848 0 34.133-15.282 34.133-34.133h68.267zM419.598 560.398l273.063-273.067 48.278 48.271-273.070 273.067-48.271-48.271zM692.661 608.669l-273.063-273.067 48.271-48.271 273.070 273.067-48.278 48.271z" />
<glyph unicode="&#xe936;" glyph-name="bag" d="M163.918 523.805v0zM110.821 45.937v0zM913.176 45.937v0zM860.078 523.805v0zM129.993 527.575l-53.096-477.87 67.849-7.537 53.096 477.868-67.849 7.539zM178.67-64h666.655v68.267h-666.655v-68.267zM947.098 49.705l-53.091 477.87-67.85-7.539 53.098-477.868 67.843 7.537zM792.228 618.667h-560.461v-68.267h560.461v68.267zM894.007 527.575c-5.762 51.859-49.596 91.092-101.779 91.092v-68.267c17.394 0 32.003-13.078 33.929-30.364l67.85 7.539zM845.326-64c61.030 0 108.517 53.050 101.772 113.705l-67.843-7.537c2.246-20.221-13.585-37.902-33.929-37.902v-68.267zM76.897 49.705c-6.74-60.655 40.742-113.705 101.773-113.705v68.267c-20.343 0-36.171 17.681-33.924 37.902l-67.849 7.537zM197.842 520.036c1.921 17.286 16.532 30.364 33.924 30.364v68.267c-52.178 0-96.012-39.233-101.773-91.092l67.849-7.539zM341.332 686.933v34.133h-68.267v-34.133h68.267zM682.665 721.067v-34.133h68.268v34.133h-68.268zM511.999 891.733c94.256 0 170.667-76.41 170.667-170.667h68.268c0 131.959-106.975 238.933-238.935 238.933v-68.267zM341.332 721.067c0 94.256 76.41 170.667 170.667 170.667v68.267c-131.959 0-238.933-106.974-238.933-238.933h68.267z" />
<glyph unicode="&#xe937;" glyph-name="bag-alt" d="M853.333-64h-682.667c-54.613 0-102.4 47.787-102.4 102.4v819.2c0 54.613 47.787 102.4 102.4 102.4h682.667c54.613 0 102.4-47.787 102.4-102.4v-819.2c0-54.613-47.787-102.4-102.4-102.4zM170.667 891.733c-20.48 0-34.133-13.653-34.133-34.133v-819.2c0-20.48 13.653-34.133 34.133-34.133h682.667c20.48 0 34.133 13.653 34.133 34.133v819.2c0 20.48-13.653 34.133-34.133 34.133h-682.667zM512 413.867c-129.707 0-238.933 109.227-238.933 238.933v170.667h68.267v-170.667c0-95.573 75.093-170.667 170.667-170.667s170.667 75.093 170.667 170.667v170.667h68.267v-170.667c0-129.707-109.227-238.933-238.933-238.933z" />
<glyph unicode="&#xe938;" glyph-name="bag-minus" d="M846.507-64h-669.013c-27.307 0-54.613 13.653-75.093 34.133s-27.307 47.787-27.307 81.92l54.613 477.867c6.827 47.787 47.787 88.747 102.4 88.747h559.787c54.613 0 95.573-40.96 102.4-88.747l54.613-477.867c0-27.307-6.827-54.613-27.307-81.92-20.48-20.48-47.787-34.133-75.093-34.133zM232.107 550.4c-20.48 0-34.133-13.653-34.133-27.307l-54.613-477.867c0-6.827 0-20.48 6.827-27.307s20.48-13.653 27.307-13.653h669.013c6.827 0 20.48 6.827 27.307 13.653s6.827 13.653 6.827 27.307l-54.613 477.867c0 20.48-13.653 27.307-34.133 27.307h-559.787zM682.667 277.333h-341.333v68.267h341.333v-68.267zM750.933 686.933h-68.267v34.133c0 95.573-75.093 170.667-170.667 170.667s-170.667-75.093-170.667-170.667v-34.133h-68.267v34.133c0 129.707 109.227 238.933 238.933 238.933s238.933-109.227 238.933-238.933v-34.133z" />
<glyph unicode="&#xe939;" glyph-name="bag-plus" d="M846.507-64h-669.013c-27.307 0-54.613 13.653-75.093 34.133s-27.307 47.787-27.307 81.92l54.613 477.867c6.827 47.787 47.787 88.747 102.4 88.747h559.787c54.613 0 95.573-40.96 102.4-88.747l54.613-477.867c0-27.307-6.827-54.613-27.307-81.92-20.48-20.48-47.787-34.133-75.093-34.133zM232.107 550.4c-20.48 0-34.133-13.653-34.133-27.307l-54.613-477.867c0-6.827 0-20.48 6.827-27.307s20.48-13.653 27.307-13.653h669.013c6.827 0 20.48 6.827 27.307 13.653s6.827 13.653 6.827 27.307l-54.613 477.867c0 20.48-13.653 27.307-34.133 27.307h-559.787zM546.133 140.8h-68.267v136.533h-136.533v68.267h136.533v136.533h68.267v-136.533h136.533v-68.267h-136.533v-136.533zM750.933 686.933h-68.267v34.133c0 95.573-75.093 170.667-170.667 170.667s-170.667-75.093-170.667-170.667v-34.133h-68.267v34.133c0 129.707 109.227 238.933 238.933 238.933s238.933-109.227 238.933-238.933v-34.133z" />
<glyph unicode="&#xe93a;" glyph-name="bank" d="M512 925.867l15.265 30.53c-9.61 4.805-20.92 4.805-30.53 0l15.265-30.53zM0-64h1024v68.267h-1024v-68.267zM496.735 956.396l-409.6-204.8 30.53-61.060 409.6 204.8-30.53 61.060zM0 550.399h1024v68.267h-1024v-68.267zM936.864 751.596l-409.599 204.8-30.53-61.060 409.601-204.8 30.529 61.060zM341.333 413.866v-273.066h68.267v273.066h-68.267zM614.4 413.866v-273.066h68.267v273.066h-68.267zM68.267 584.533v-614.399h68.267v614.399h-68.267zM887.467 584.533v-614.399h68.267v614.399h-68.267z" />
<glyph unicode="&#xe93b;" glyph-name="bar-chart" d="M1024-64h-1024v68.267h1024v-68.267zM955.733 140.8h-68.267v819.2h68.267v-819.2zM682.667 140.8h-68.267v614.4h68.267v-614.4zM409.6 140.8h-68.267v409.6h68.267v-409.6zM136.533 140.8h-68.267v204.8h68.267v-204.8z" />
<glyph unicode="&#xe93c;" glyph-name="barcode" d="M1024 72.533h-68.267v750.933h68.267v-750.933zM750.933 72.533h-68.267v750.933h68.267v-750.933zM546.133 72.533h-68.267v750.933h68.267v-750.933zM409.6 72.533h-68.267v750.933h68.267v-750.933zM68.267 72.533h-68.267v750.933h68.267v-750.933z" />
<glyph unicode="&#xe93d;" glyph-name="basket" d="M167.184-22.903v0zM856.815-22.903v0zM48.005 550.4h927.99v68.267h-927.99v-68.267zM955.733 570.662v-29.953h68.267v29.953h-68.267zM845.544 4.267h-667.089v-68.267h667.089v68.267zM68.267 540.709v29.953h-68.267v-29.953h68.267zM197.713-7.632c-85.128 170.25-129.447 357.99-129.447 548.341h-68.267c0-200.949 46.786-399.137 136.653-578.877l61.060 30.536zM178.455 4.267c8.156 0 15.611-4.608 19.258-11.899l-61.060-30.536c7.917-15.831 24.099-25.832 41.802-25.832v68.267zM826.286-7.632c3.645 7.291 11.1 11.899 19.258 11.899v-68.267c17.702 0 33.888 10.001 41.8 25.832l-61.058 30.536zM955.733 540.709c0-190.351-44.319-378.091-129.447-548.341l61.058-30.536c89.873 179.739 136.656 377.928 136.656 578.877h-68.267zM975.995 550.4c-11.189 0-20.262 9.071-20.262 20.262h68.267c0 26.513-21.49 48.005-48.005 48.005v-68.267zM48.005 618.667c-26.512 0-48.005-21.492-48.005-48.005h68.267c0-11.19-9.071-20.262-20.262-20.262v68.267zM268.203 566.972l204.8 341.333-58.539 35.123-204.8-341.333 58.539-35.123zM550.997 908.305l204.803-341.333 58.532 35.123-204.797 341.333-58.539-35.123z" />
<glyph unicode="&#xe93e;" glyph-name="basket-minus" d="M167.184-22.903v0zM856.815-22.903v0zM48.005 550.4h927.99v68.267h-927.99v-68.267zM955.733 570.662v-29.953h68.267v29.953h-68.267zM845.544 4.267h-667.089v-68.267h667.089v68.267zM68.267 540.709v29.953h-68.267v-29.953h68.267zM197.713-7.632c-85.128 170.25-129.447 357.99-129.447 548.341h-68.267c0-200.949 46.786-399.137 136.653-578.877l61.060 30.536zM178.455 4.267c8.156 0 15.611-4.608 19.258-11.899l-61.060-30.536c7.917-15.831 24.099-25.832 41.802-25.832v68.267zM826.286-7.632c3.645 7.291 11.1 11.899 19.258 11.899v-68.267c17.702 0 33.888 10.001 41.8 25.832l-61.058 30.536zM955.733 540.709c0-190.351-44.319-378.091-129.447-548.341l61.058-30.536c89.873 179.739 136.656 377.928 136.656 578.877h-68.267zM975.995 550.4c-11.189 0-20.262 9.071-20.262 20.262h68.267c0 26.513-21.49 48.005-48.005 48.005v-68.267zM48.005 618.667c-26.512 0-48.005-21.492-48.005-48.005h68.267c0-11.19-9.071-20.262-20.262-20.262v68.267zM268.203 566.972l204.8 341.333-58.539 35.123-204.8-341.333 58.539-35.123zM550.997 908.305l204.803-341.333 58.532 35.123-204.797 341.333-58.539-35.123zM341.333 277.333h341.333v68.267h-341.333v-68.267z" />
<glyph unicode="&#xe93f;" glyph-name="basket-plus" d="M167.184-22.903v0zM856.815-22.903v0zM48.005 550.4h927.99v68.267h-927.99v-68.267zM955.733 570.662v-29.953h68.267v29.953h-68.267zM845.544 4.267h-667.089v-68.267h667.089v68.267zM68.267 540.709v29.953h-68.267v-29.953h68.267zM197.713-7.632c-85.128 170.25-129.447 357.99-129.447 548.341h-68.267c0-200.949 46.786-399.137 136.653-578.877l61.060 30.536zM178.455 4.267c8.156 0 15.611-4.608 19.258-11.899l-61.060-30.536c7.917-15.831 24.099-25.832 41.802-25.832v68.267zM826.286-7.632c3.645 7.291 11.1 11.899 19.258 11.899v-68.267c17.702 0 33.888 10.001 41.8 25.832l-61.058 30.536zM955.733 540.709c0-190.351-44.319-378.091-129.447-548.341l61.058-30.536c89.873 179.739 136.656 377.928 136.656 578.877h-68.267zM975.995 550.4c-11.189 0-20.262 9.071-20.262 20.262h68.267c0 26.513-21.49 48.005-48.005 48.005v-68.267zM48.005 618.667c-26.512 0-48.005-21.492-48.005-48.005h68.267c0-11.19-9.071-20.262-20.262-20.262v68.267zM268.203 566.972l204.8 341.333-58.539 35.123-204.8-341.333 58.539-35.123zM550.997 908.305l204.803-341.333 58.532 35.123-204.797 341.333-58.539-35.123zM477.867 482.133v-341.333h68.267v341.333h-68.267zM341.333 277.333h341.333v68.267h-341.333v-68.267z" />
<glyph unicode="&#xe940;" glyph-name="bath" d="M750.933-64h-68.267v136.533h-341.333v-136.533h-68.267v136.533c-116.053 13.653-204.8 116.053-204.8 238.933v102.4h-68.267v68.267h68.267v238.933c0 129.707 109.227 238.933 238.933 238.933h170.667v-136.533h-68.267v68.267h-102.4c-95.573 0-170.667-75.093-170.667-170.667v-238.933h887.467v-68.267h-68.267v-102.4c0-122.88-88.747-218.453-204.8-238.933v-136.533zM307.2 106.667v34.133h409.6c95.573 0 170.667 75.093 170.667 170.667v102.4h-750.933v-102.4c0-95.573 75.093-170.667 170.667-170.667v-34.133zM546.133 686.933h-204.8v68.267h204.8v-68.267z" />
<glyph unicode="&#xe941;" glyph-name="battery-0" d="M785.067 72.533h-682.667c-54.613 0-102.4 47.787-102.4 102.4v546.133c0 54.613 47.787 102.4 102.4 102.4h682.667c54.613 0 102.4-47.787 102.4-102.4v-546.133c0-54.613-47.787-102.4-102.4-102.4zM102.4 755.2c-20.48 0-34.133-13.653-34.133-34.133v-546.133c0-20.48 13.653-34.133 34.133-34.133h682.667c20.48 0 34.133 13.653 34.133 34.133v546.133c0 20.48-13.653 34.133-34.133 34.133h-682.667zM1024 277.333h-68.267v341.333h68.267v-341.333z" />
<glyph unicode="&#xe942;" glyph-name="battery-1" d="M785.067 72.533h-682.667c-54.613 0-102.4 47.787-102.4 102.4v546.133c0 54.613 47.787 102.4 102.4 102.4h682.667c54.613 0 102.4-47.787 102.4-102.4v-546.133c0-54.613-47.787-102.4-102.4-102.4zM102.4 755.2c-20.48 0-34.133-13.653-34.133-34.133v-546.133c0-20.48 13.653-34.133 34.133-34.133h682.667c20.48 0 34.133 13.653 34.133 34.133v546.133c0 20.48-13.653 34.133-34.133 34.133h-682.667zM204.8 209.067h-68.267v477.867h68.267v-477.867zM1024 277.333h-68.267v341.333h68.267v-341.333z" />
<glyph unicode="&#xe943;" glyph-name="battery-2" d="M785.067 72.533h-682.667c-54.613 0-102.4 47.787-102.4 102.4v546.133c0 54.613 47.787 102.4 102.4 102.4h682.667c54.613 0 102.4-47.787 102.4-102.4v-546.133c0-54.613-47.787-102.4-102.4-102.4zM102.4 755.2c-20.48 0-34.133-13.653-34.133-34.133v-546.133c0-20.48 13.653-34.133 34.133-34.133h682.667c20.48 0 34.133 13.653 34.133 34.133v546.133c0 20.48-13.653 34.133-34.133 34.133h-682.667zM341.333 209.067h-68.267v477.867h68.267v-477.867zM204.8 209.067h-68.267v477.867h68.267v-477.867zM1024 277.333h-68.267v341.333h68.267v-341.333z" />
<glyph unicode="&#xe944;" glyph-name="battery-3" d="M785.067 72.533h-682.667c-54.613 0-102.4 47.787-102.4 102.4v546.133c0 54.613 47.787 102.4 102.4 102.4h682.667c54.613 0 102.4-47.787 102.4-102.4v-546.133c0-54.613-47.787-102.4-102.4-102.4zM102.4 755.2c-20.48 0-34.133-13.653-34.133-34.133v-546.133c0-20.48 13.653-34.133 34.133-34.133h682.667c20.48 0 34.133 13.653 34.133 34.133v546.133c0 20.48-13.653 34.133-34.133 34.133h-682.667zM477.867 209.067h-68.267v477.867h68.267v-477.867zM341.333 209.067h-68.267v477.867h68.267v-477.867zM204.8 209.067h-68.267v477.867h68.267v-477.867zM1024 277.333h-68.267v341.333h68.267v-341.333z" />
<glyph unicode="&#xe945;" glyph-name="battery-4" d="M785.067 72.533h-682.667c-54.613 0-102.4 47.787-102.4 102.4v546.133c0 54.613 47.787 102.4 102.4 102.4h682.667c54.613 0 102.4-47.787 102.4-102.4v-546.133c0-54.613-47.787-102.4-102.4-102.4zM102.4 755.2c-20.48 0-34.133-13.653-34.133-34.133v-546.133c0-20.48 13.653-34.133 34.133-34.133h682.667c20.48 0 34.133 13.653 34.133 34.133v546.133c0 20.48-13.653 34.133-34.133 34.133h-682.667zM614.4 209.067h-68.267v477.867h68.267v-477.867zM477.867 209.067h-68.267v477.867h68.267v-477.867zM341.333 209.067h-68.267v477.867h68.267v-477.867zM204.8 209.067h-68.267v477.867h68.267v-477.867zM1024 277.333h-68.267v341.333h68.267v-341.333z" />
<glyph unicode="&#xe946;" glyph-name="battery-5" d="M785.067 72.533h-682.667c-54.613 0-102.4 47.787-102.4 102.4v546.133c0 54.613 47.787 102.4 102.4 102.4h682.667c54.613 0 102.4-47.787 102.4-102.4v-546.133c0-54.613-47.787-102.4-102.4-102.4zM102.4 755.2c-20.48 0-34.133-13.653-34.133-34.133v-546.133c0-20.48 13.653-34.133 34.133-34.133h682.667c20.48 0 34.133 13.653 34.133 34.133v546.133c0 20.48-13.653 34.133-34.133 34.133h-682.667zM750.933 209.067h-68.267v477.867h68.267v-477.867zM614.4 209.067h-68.267v477.867h68.267v-477.867zM477.867 209.067h-68.267v477.867h68.267v-477.867zM341.333 209.067h-68.267v477.867h68.267v-477.867zM204.8 209.067h-68.267v477.867h68.267v-477.867zM1024 277.333h-68.267v341.333h68.267v-341.333z" />
<glyph unicode="&#xe947;" glyph-name="battery-charge" d="M853.333 174.933v0zM785.067 106.667v0zM785.067 789.333v0zM853.333 721.067v0zM34.133 721.067v0zM102.4 789.333v0zM34.133 174.933v0zM102.4 106.667v0zM443.733 311.467l-15.265-30.53c10.581-5.29 23.147-4.723 33.21 1.494 10.063 6.22 16.188 17.206 16.188 29.036h-34.133zM443.733 584.533l15.265 30.53c-10.581 5.291-23.147 4.725-33.21-1.494s-16.188-17.206-16.188-29.036h34.133zM68.267 174.933v546.133h-68.267v-546.133h68.267zM102.4 755.2h682.667v68.267h-682.667v-68.267zM819.2 721.067v-546.133h68.267v546.133h-68.267zM785.067 140.8h-682.667v-68.267h682.667v68.267zM819.2 174.933c0-18.848-15.285-34.133-34.133-34.133v-68.267c56.552 0 102.4 45.848 102.4 102.4h-68.267zM785.067 755.2c18.848 0 34.133-15.282 34.133-34.133h68.267c0 56.554-45.848 102.4-102.4 102.4v-68.267zM68.267 721.067c0 18.851 15.282 34.133 34.133 34.133v68.267c-56.554 0-102.4-45.846-102.4-102.4h68.267zM0 174.933c0-56.552 45.846-102.4 102.4-102.4v68.267c-18.851 0-34.133 15.285-34.133 34.133h-68.267zM1024 277.333v341.333h-68.267v-341.333h68.267zM155.402 417.47l273.067-136.533 30.53 61.059-273.067 136.533-30.53-61.059zM477.867 311.467v273.067h-68.267v-273.067h68.267zM428.468 554.004l273.067-136.533 30.529 61.059-273.066 136.533-30.53-61.059z" />
<glyph unicode="&#xe948;" glyph-name="bed-double" d="M1024-64h-68.267v273.067h-887.467v-273.067h-68.267v546.133h1024v-546.133zM68.267 277.333h887.467v136.533h-887.467v-136.533zM1024 550.4h-68.267v341.333h-887.467v-341.333h-68.267v409.6h1024v-409.6zM887.467 550.4h-273.067v68.267h273.067v-68.267zM409.6 550.4h-273.067v68.267h273.067v-68.267z" />
<glyph unicode="&#xe949;" glyph-name="bed-single" d="M1024-64h-68.267v273.067h-887.467v-273.067h-68.267v1024h68.267v-477.867h887.467v204.8h68.267v-750.933zM68.267 277.333h887.467v136.533h-887.467v-136.533zM409.6 550.4h-273.067v68.267h273.067v-68.267z" />
<glyph unicode="&#xe94a;" glyph-name="behance" d="M989.867 311.467v-34.133h34.133v34.133h-34.133zM34.133 789.333v34.133h-34.133v-34.133h34.133zM34.133 106.667h-34.133v-34.133h34.133v34.133zM546.133 311.467c0-131.959 106.974-238.933 238.933-238.933v68.267c-94.256 0-170.667 76.411-170.667 170.667h-68.267zM785.067 550.4c-131.959 0-238.933-106.974-238.933-238.933h68.267c0 94.256 76.411 170.667 170.667 170.667v68.267zM1024 311.467c0 131.959-106.974 238.933-238.933 238.933v-68.267c94.256 0 170.667-76.41 170.667-170.667h68.267zM923.43 211.524c-31.068-42.919-81.469-70.724-138.363-70.724v-68.267c79.715 0 150.31 39.076 193.659 98.959l-55.296 40.032zM34.133 755.2h170.667v68.267h-170.667v-68.267zM204.8 482.133h-170.667v-68.267h170.667v68.267zM68.267 448v341.333h-68.267v-341.333h68.267zM341.333 618.667c0-75.405-61.128-136.533-136.533-136.533v-68.267c113.108 0 204.8 91.692 204.8 204.8h-68.267zM204.8 755.2c75.405 0 136.533-61.128 136.533-136.533h68.267c0 113.108-91.692 204.8-204.8 204.8v-68.267zM34.133 413.867h238.933v68.267h-238.933v-68.267zM273.067 140.8h-238.933v-68.267h238.933v68.267zM68.267 106.667v341.333h-68.267v-341.333h68.267zM409.6 277.333c0-75.407-61.128-136.533-136.533-136.533v-68.267c113.108 0 204.8 91.689 204.8 204.8h-68.267zM273.067 413.867c75.405 0 136.533-61.128 136.533-136.533h68.267c0 113.108-91.692 204.8-204.8 204.8v-68.267zM580.267 277.333h409.6v68.267h-409.6v-68.267zM614.4 686.933h341.333v68.267h-341.333v-68.267z" />
<glyph unicode="&#xe94b;" glyph-name="bell" d="M512-64c-95.573 0-170.667 75.093-170.667 170.667v34.133h68.267v-34.133c0-54.613 47.787-102.4 102.4-102.4s102.4 47.787 102.4 102.4v34.133h68.267v-34.133c0-95.573-75.093-170.667-170.667-170.667zM955.733 209.067h-887.467v68.267h68.267v307.2c0 204.8 170.667 375.467 375.467 375.467s375.467-170.667 375.467-375.467v-307.2h68.267v-68.267zM204.8 277.333h614.4v307.2c0 170.667-136.533 307.2-307.2 307.2s-307.2-136.533-307.2-307.2v-307.2z" />
<glyph unicode="&#xe94c;" glyph-name="bin" d="M853.333-64h-682.667c-54.613 0-102.4 47.787-102.4 102.4v648.533h-68.267v68.267h273.067v102.4c0 54.613 47.787 102.4 102.4 102.4h273.067c54.613 0 102.4-47.787 102.4-102.4v-102.4h273.067v-68.267h-68.267v-648.533c0-54.613-47.787-102.4-102.4-102.4zM136.533 686.933v-648.533c0-20.48 13.653-34.133 34.133-34.133h682.667c20.48 0 34.133 13.653 34.133 34.133v648.533h-750.933zM341.333 755.2h341.333v102.4c0 20.48-13.653 34.133-34.133 34.133h-273.067c-20.48 0-34.133-13.653-34.133-34.133v-102.4zM750.933 140.8h-68.267v204.8h68.267v-204.8zM546.133 140.8h-68.267v341.333h68.267v-341.333zM341.333 140.8h-68.267v204.8h68.267v-204.8z" />
<glyph unicode="&#xe94d;" glyph-name="bitbucket" d="M34.133 925.867v34.133c-9.895 0-19.303-4.294-25.786-11.769s-9.403-17.396-8.004-27.191l33.79 4.827zM989.867 925.867l33.792-4.827c1.399 9.796-1.522 19.716-8.008 27.191-6.479 7.475-15.892 11.769-25.784 11.769v-34.133zM853.333-29.867v-34.133c16.985 0 31.389 12.493 33.792 29.307l-33.792 4.826zM170.667-29.867l-33.79-4.826c2.402-16.814 16.803-29.307 33.79-29.307v34.133zM341.333 652.8v34.133c-9.546 0-18.655-3.997-25.118-11.022s-9.69-16.434-8.897-25.946l34.015 2.834zM648.533 243.2v-34.133c17.752 0 32.541 13.606 34.015 31.3l-34.015 2.833zM375.467 243.2l-34.015-2.833c1.474-17.695 16.263-31.3 34.015-31.3v34.133zM34.133 891.733h955.733v68.267h-955.733v-68.267zM956.075 930.694l-136.533-955.734 67.584-9.653 136.533 955.733-67.584 9.654zM853.333 4.267h-682.667v-68.267h682.667v68.267zM204.457-25.040l-136.533 955.734-67.581-9.654 136.534-955.733 67.58 9.653zM341.333 618.667h341.333v68.267h-341.333v-68.267zM648.651 655.634l-34.133-409.601 68.030-5.666 34.135 409.599-68.033 5.669zM648.533 277.333h-273.067v-68.267h273.067v68.267zM409.482 246.033l-34.133 409.601-68.030-5.669 34.133-409.599 68.030 5.666zM682.667 618.667h273.067v68.267h-273.067v-68.267z" />
<glyph unicode="&#xe94e;" glyph-name="bitcoin" d="M546.133-64h-68.267v68.267h-204.8v-68.267h-68.267v68.267h-68.267v68.267h68.267v341.333h-68.267v68.267h68.267v341.333h-68.267v68.267h68.267v68.267h68.267v-68.267h204.8v68.267h68.267v-68.267h34.133c129.707 0 238.933-109.227 238.933-238.933 0-75.093-34.133-143.36-88.747-184.32 88.747-34.133 157.013-122.88 157.013-225.28 0-129.707-109.227-238.933-238.933-238.933h-102.4v-68.267zM273.067 72.533h375.467c95.573 0 170.667 75.093 170.667 170.667s-75.093 170.667-170.667 170.667h-375.467v-341.333zM273.067 482.133h307.2c95.573 0 170.667 75.093 170.667 170.667s-75.093 170.667-170.667 170.667h-307.2v-341.333z" />
<glyph unicode="&#xe94f;" glyph-name="bluetooth" d="M512-29.867h-34.133c0-12.725 7.081-24.399 18.37-30.276s24.911-4.983 35.338 2.314l-19.574 27.962zM512 925.867l19.574 27.963c-10.426 7.299-24.048 8.19-35.338 2.312s-18.37-17.548-18.37-30.276h34.133zM853.333 686.933l19.231-28.202c9.264 6.316 14.834 16.779 14.903 27.991s-5.373 21.744-14.561 28.174l-19.572-27.963zM853.333 209.067l19.572-27.962c9.189 6.431 14.63 16.957 14.561 28.174-0.068 11.209-5.639 21.675-14.903 27.989l-19.231-28.201zM546.133-29.867v484.073h-68.267v-484.073h68.267zM546.133 454.206v471.661h-68.267v-471.661h68.267zM492.426 897.904l341.335-238.934 39.144 55.927-341.331 238.933-39.148-55.926zM834.103 715.135l-341.331-232.727 38.457-56.403 341.335 232.727-38.461 56.403zM492.771 482.408l-409.6-279.273 38.457-56.402 409.6 279.272-38.457 56.403zM531.574-57.829l341.331 238.933-39.144 55.924-341.335-238.933 39.148-55.924zM872.564 237.268l-750.935 512.001-38.457-56.403 750.931-511.999 38.461 56.402z" />
<glyph unicode="&#xe950;" glyph-name="bold" d="M648.533 4.267h-402.773c-20.48 0-40.96 20.48-40.96 40.96v805.547c0 20.48 20.48 40.96 40.96 40.96h334.507c129.707 0 238.933-109.227 238.933-238.933 0-75.093-34.133-143.36-88.747-184.32 88.747-34.133 157.013-122.88 157.013-225.28 0-129.707-109.227-238.933-238.933-238.933zM273.067 72.533h375.467c95.573 0 170.667 75.093 170.667 170.667s-75.093 170.667-170.667 170.667h-375.467v-341.333zM273.067 482.133h307.2c95.573 0 170.667 75.093 170.667 170.667s-75.093 170.667-170.667 170.667h-307.2v-341.333z" />
<glyph unicode="&#xe951;" glyph-name="book" d="M102.4 925.867v34.133c-18.851 0-34.133-15.282-34.133-34.133h34.133zM102.4 38.4h-34.133c0-18.848 15.282-34.133 34.133-34.133v34.133zM273.067 960v-1024h68.267v1024h-68.267zM102.4 891.733h682.667v68.267h-682.667v-68.267zM887.467 789.333v-614.4h68.267v614.4h-68.267zM785.067 72.533h-682.667v-68.267h682.667v68.267zM136.533 38.4v887.467h-68.267v-887.467h68.267zM887.467 174.933c0-56.552-45.848-102.4-102.4-102.4v-68.267c94.256 0 170.667 76.411 170.667 170.667h-68.267zM785.067 891.733c56.552 0 102.4-45.846 102.4-102.4h68.267c0 94.256-76.411 170.667-170.667 170.667v-68.267zM477.867 618.667h273.067v68.267h-273.067v-68.267z" />
<glyph unicode="&#xe952;" glyph-name="bookmark" d="M853.333-29.867l-21.32-26.651c10.24-8.199 24.282-9.796 36.106-4.116 11.824 5.687 19.347 17.647 19.347 30.768h-34.133zM853.333 925.866h34.133v34.133h-34.133v-34.133zM170.667 925.867v34.133h-34.133v-34.133h34.133zM170.667-29.867h-34.133c0-13.121 7.521-25.081 19.347-30.768 11.826-5.68 25.863-4.082 36.109 4.116l-21.323 26.651zM512 243.2l21.323 26.651c-12.466 9.974-30.18 9.974-42.646 0l21.323-26.651zM887.467-29.867v955.733h-68.267v-955.733h68.267zM136.533 925.867v-955.733h68.267v955.733h-68.267zM191.99-56.518l341.333 273.067-42.646 53.303-341.333-273.067 42.646-53.303zM490.677 216.549l341.337-273.067 42.639 53.303-341.33 273.067-42.646-53.303zM853.333 959.999l-682.667 0.001v-68.267l682.667-0.001v68.267z" />
<glyph unicode="&#xe953;" glyph-name="border-all" d="M955.733 4.267h-887.467v887.467h887.467v-887.467zM546.133 72.533h341.333v341.333h-341.333v-341.333zM136.533 72.533h341.333v341.333h-341.333v-341.333zM546.133 482.133h341.333v341.333h-341.333v-341.333zM136.533 482.133h341.333v341.333h-341.333v-341.333z" />
<glyph unicode="&#xe954;" glyph-name="border-bottom" d="M955.733 4.267h-887.467v68.267h887.467v-68.267zM955.733 209.067h-68.267v68.267h68.267v-68.267zM546.133 209.067h-68.267v68.267h68.267v-68.267zM136.533 209.067h-68.267v68.267h68.267v-68.267zM955.733 413.867h-68.267v68.267h68.267v-68.267zM750.933 413.867h-68.267v68.267h68.267v-68.267zM546.133 413.867h-68.267v68.267h68.267v-68.267zM341.333 413.867h-68.267v68.267h68.267v-68.267zM136.533 413.867h-68.267v68.267h68.267v-68.267zM955.733 618.667h-68.267v68.267h68.267v-68.267zM546.133 618.667h-68.267v68.267h68.267v-68.267zM136.533 618.667h-68.267v68.267h68.267v-68.267zM955.733 823.467h-68.267v68.267h68.267v-68.267zM750.933 823.467h-68.267v68.267h68.267v-68.267zM546.133 823.467h-68.267v68.267h68.267v-68.267zM341.333 823.467h-68.267v68.267h68.267v-68.267zM136.533 823.467h-68.267v68.267h68.267v-68.267z" />
<glyph unicode="&#xe955;" glyph-name="border-horizontal" d="M955.733 4.267h-68.267v68.267h68.267v-68.267zM750.933 4.267h-68.267v68.267h68.267v-68.267zM546.133 4.267h-68.267v68.267h68.267v-68.267zM341.333 4.267h-68.267v68.267h68.267v-68.267zM136.533 4.267h-68.267v68.267h68.267v-68.267zM955.733 209.067h-68.267v68.267h68.267v-68.267zM546.133 209.067h-68.267v68.267h68.267v-68.267zM136.533 209.067h-68.267v68.267h68.267v-68.267zM955.733 413.867h-887.467v68.267h887.467v-68.267zM955.733 618.667h-68.267v68.267h68.267v-68.267zM546.133 618.667h-68.267v68.267h68.267v-68.267zM136.533 618.667h-68.267v68.267h68.267v-68.267zM955.733 823.467h-68.267v68.267h68.267v-68.267zM750.933 823.467h-68.267v68.267h68.267v-68.267zM546.133 823.467h-68.267v68.267h68.267v-68.267zM341.333 823.467h-68.267v68.267h68.267v-68.267zM136.533 823.467h-68.267v68.267h68.267v-68.267z" />
<glyph unicode="&#xe956;" glyph-name="border-inner" d="M955.733 4.267h-68.267v68.267h68.267v-68.267zM750.933 4.267h-68.267v68.267h68.267v-68.267zM546.133 4.267h-68.267v409.6h-409.6v68.267h409.6v409.6h68.267v-409.6h409.6v-68.267h-409.6v-409.6zM341.333 4.267h-68.267v68.267h68.267v-68.267zM136.533 4.267h-68.267v68.267h68.267v-68.267zM955.733 209.067h-68.267v68.267h68.267v-68.267zM136.533 209.067h-68.267v68.267h68.267v-68.267zM955.733 618.667h-68.267v68.267h68.267v-68.267zM136.533 618.667h-68.267v68.267h68.267v-68.267zM955.733 823.467h-68.267v68.267h68.267v-68.267zM750.933 823.467h-68.267v68.267h68.267v-68.267zM341.333 823.467h-68.267v68.267h68.267v-68.267zM136.533 823.467h-68.267v68.267h68.267v-68.267z" />
<glyph unicode="&#xe957;" glyph-name="border-left" d="M955.733 4.267h-68.267v68.267h68.267v-68.267zM750.933 4.267h-68.267v68.267h68.267v-68.267zM546.133 4.267h-68.267v68.267h68.267v-68.267zM341.333 4.267h-68.267v68.267h68.267v-68.267zM136.533 4.267h-68.267v887.467h68.267v-887.467zM955.733 209.067h-68.267v68.267h68.267v-68.267zM546.133 209.067h-68.267v68.267h68.267v-68.267zM955.733 413.867h-68.267v68.267h68.267v-68.267zM750.933 413.867h-68.267v68.267h68.267v-68.267zM546.133 413.867h-68.267v68.267h68.267v-68.267zM341.333 413.867h-68.267v68.267h68.267v-68.267zM955.733 618.667h-68.267v68.267h68.267v-68.267zM546.133 618.667h-68.267v68.267h68.267v-68.267zM955.733 823.467h-68.267v68.267h68.267v-68.267zM750.933 823.467h-68.267v68.267h68.267v-68.267zM546.133 823.467h-68.267v68.267h68.267v-68.267zM341.333 823.467h-68.267v68.267h68.267v-68.267z" />
<glyph unicode="&#xe958;" glyph-name="border-none" d="M955.733 4.267h-68.267v68.267h68.267v-68.267zM750.933 4.267h-68.267v68.267h68.267v-68.267zM546.133 4.267h-68.267v68.267h68.267v-68.267zM341.333 4.267h-68.267v68.267h68.267v-68.267zM136.533 4.267h-68.267v68.267h68.267v-68.267zM955.733 209.067h-68.267v68.267h68.267v-68.267zM546.133 209.067h-68.267v68.267h68.267v-68.267zM136.533 209.067h-68.267v68.267h68.267v-68.267zM955.733 413.867h-68.267v68.267h68.267v-68.267zM750.933 413.867h-68.267v68.267h68.267v-68.267zM546.133 413.867h-68.267v68.267h68.267v-68.267zM341.333 413.867h-68.267v68.267h68.267v-68.267zM136.533 413.867h-68.267v68.267h68.267v-68.267zM955.733 618.667h-68.267v68.267h68.267v-68.267zM546.133 618.667h-68.267v68.267h68.267v-68.267zM136.533 618.667h-68.267v68.267h68.267v-68.267zM955.733 823.467h-68.267v68.267h68.267v-68.267zM750.933 823.467h-68.267v68.267h68.267v-68.267zM546.133 823.467h-68.267v68.267h68.267v-68.267zM341.333 823.467h-68.267v68.267h68.267v-68.267zM136.533 823.467h-68.267v68.267h68.267v-68.267z" />
<glyph unicode="&#xe959;" glyph-name="border-outer" d="M955.733 4.267h-887.467v887.467h887.467v-887.467zM136.533 72.533h750.933v750.933h-750.933v-750.933zM546.133 209.067h-68.267v68.267h68.267v-68.267zM750.933 413.867h-68.267v68.267h68.267v-68.267zM546.133 413.867h-68.267v68.267h68.267v-68.267zM341.333 413.867h-68.267v68.267h68.267v-68.267zM546.133 618.667h-68.267v68.267h68.267v-68.267z" />
<glyph unicode="&#xe95a;" glyph-name="border-radius" d="M955.733 4.267h-68.267v68.267h68.267v-68.267zM750.933 4.267h-68.267v68.267h68.267v-68.267zM546.133 4.267h-68.267v68.267h68.267v-68.267zM341.333 4.267h-68.267v68.267h68.267v-68.267zM136.533 4.267h-68.267v68.267h68.267v-68.267zM955.733 209.067h-68.267v68.267h68.267v-68.267zM136.533 209.067h-68.267v68.267h68.267v-68.267zM955.733 413.867h-68.267v68.267h68.267v-68.267zM136.533 413.867h-68.267v170.667c0 170.667 136.533 307.2 307.2 307.2h170.667v-68.267h-170.667c-129.707 0-238.933-109.227-238.933-238.933v-170.667zM955.733 618.667h-68.267v68.267h68.267v-68.267zM955.733 823.467h-68.267v68.267h68.267v-68.267zM750.933 823.467h-68.267v68.267h68.267v-68.267z" />
<glyph unicode="&#xe95b;" glyph-name="border-right" d="M955.733 4.267h-68.267v887.467h68.267v-887.467zM750.933 4.267h-68.267v68.267h68.267v-68.267zM546.133 4.267h-68.267v68.267h68.267v-68.267zM341.333 4.267h-68.267v68.267h68.267v-68.267zM136.533 4.267h-68.267v68.267h68.267v-68.267zM546.133 209.067h-68.267v68.267h68.267v-68.267zM136.533 209.067h-68.267v68.267h68.267v-68.267zM750.933 413.867h-68.267v68.267h68.267v-68.267zM546.133 413.867h-68.267v68.267h68.267v-68.267zM341.333 413.867h-68.267v68.267h68.267v-68.267zM136.533 413.867h-68.267v68.267h68.267v-68.267zM546.133 618.667h-68.267v68.267h68.267v-68.267zM136.533 618.667h-68.267v68.267h68.267v-68.267zM750.933 823.467h-68.267v68.267h68.267v-68.267zM546.133 823.467h-68.267v68.267h68.267v-68.267zM341.333 823.467h-68.267v68.267h68.267v-68.267zM136.533 823.467h-68.267v68.267h68.267v-68.267z" />
<glyph unicode="&#xe95c;" glyph-name="border-top" d="M955.733 4.267h-68.267v68.267h68.267v-68.267zM750.933 4.267h-68.267v68.267h68.267v-68.267zM546.133 4.267h-68.267v68.267h68.267v-68.267zM341.333 4.267h-68.267v68.267h68.267v-68.267zM136.533 4.267h-68.267v68.267h68.267v-68.267zM955.733 209.067h-68.267v68.267h68.267v-68.267zM546.133 209.067h-68.267v68.267h68.267v-68.267zM136.533 209.067h-68.267v68.267h68.267v-68.267zM955.733 413.867h-68.267v68.267h68.267v-68.267zM750.933 413.867h-68.267v68.267h68.267v-68.267zM546.133 413.867h-68.267v68.267h68.267v-68.267zM341.333 413.867h-68.267v68.267h68.267v-68.267zM136.533 413.867h-68.267v68.267h68.267v-68.267zM955.733 618.667h-68.267v68.267h68.267v-68.267zM546.133 618.667h-68.267v68.267h68.267v-68.267zM136.533 618.667h-68.267v68.267h68.267v-68.267zM955.733 823.467h-887.467v68.267h887.467v-68.267z" />
<glyph unicode="&#xe95d;" glyph-name="border-vertical" d="M955.733 4.267h-68.267v68.267h68.267v-68.267zM750.933 4.267h-68.267v68.267h68.267v-68.267zM546.133 4.267h-68.267v887.467h68.267v-887.467zM341.333 4.267h-68.267v68.267h68.267v-68.267zM136.533 4.267h-68.267v68.267h68.267v-68.267zM955.733 209.067h-68.267v68.267h68.267v-68.267zM136.533 209.067h-68.267v68.267h68.267v-68.267zM955.733 413.867h-68.267v68.267h68.267v-68.267zM750.933 413.867h-68.267v68.267h68.267v-68.267zM341.333 413.867h-68.267v68.267h68.267v-68.267zM136.533 413.867h-68.267v68.267h68.267v-68.267zM955.733 618.667h-68.267v68.267h68.267v-68.267zM136.533 618.667h-68.267v68.267h68.267v-68.267zM955.733 823.467h-68.267v68.267h68.267v-68.267zM750.933 823.467h-68.267v68.267h68.267v-68.267zM341.333 823.467h-68.267v68.267h68.267v-68.267zM136.533 823.467h-68.267v68.267h68.267v-68.267z" />
<glyph unicode="&#xe95e;" glyph-name="bottom-left" d="M102.4 38.4h-34.133c0-18.848 15.282-34.133 34.133-34.133v34.133zM102.4 4.267h375.466v68.267h-375.466v-68.267zM136.533 38.4v375.467h-68.267v-375.467h68.267zM126.536 14.261l819.197 819.203-48.271 48.271-819.197-819.197 48.271-48.278z" />
<glyph unicode="&#xe95f;" glyph-name="bottom-right" d="M921.6 38.4v-34.133c18.848 0 34.133 15.285 34.133 34.133h-34.133zM921.6 72.533h-375.467v-68.267h375.467v68.267zM955.733 38.4v375.467h-68.267v-375.467h68.267zM945.732 62.539l-819.197 819.197-48.271-48.271 819.197-819.203 48.271 48.278z" />
<glyph unicode="&#xe960;" glyph-name="box" d="M525.653-64l-13.653 34.133-13.653-34.133-477.867 204.8c-13.653 6.827-20.48 20.48-20.48 34.133v546.133h34.133l-13.653 34.133 477.867 204.8c6.827 0 20.48 0 27.307 0l477.867-204.8-13.653-34.133h34.133v-546.133c0-13.653-6.827-27.307-20.48-34.133l-477.867-204.8zM546.133 495.787v-471.040l409.6 177.493v464.213l-409.6-170.667zM68.267 195.413l409.6-177.493v477.867l-409.6 170.667v-471.040zM122.88 721.067l389.12-170.667 389.12 170.667-389.12 170.667-389.12-170.667z" />
<glyph unicode="&#xe961;" glyph-name="bracket" d="M785.067-64h-102.4v68.267h102.4c54.613 0 102.4 47.787 102.4 102.4v682.667c0 54.613-47.787 102.4-102.4 102.4h-102.4v68.267h102.4c95.573 0 170.667-75.093 170.667-170.667v-307.2h68.267v-68.267h-68.267v-307.2c0-95.573-75.093-170.667-170.667-170.667zM341.333-64h-102.4c-95.573 0-170.667 75.093-170.667 170.667v307.2h-68.267v68.267h68.267v307.2c0 95.573 75.093 170.667 170.667 170.667h102.4v-68.267h-102.4c-54.613 0-102.4-47.787-102.4-102.4v-682.667c0-54.613 47.787-102.4 102.4-102.4h102.4v-68.267z" />
<glyph unicode="&#xe962;" glyph-name="briefcase" d="M921.6-64h-819.2c-54.613 0-102.4 47.787-102.4 102.4v614.4c0 54.613 47.787 102.4 102.4 102.4h238.933v34.133c0 95.573 75.093 170.667 170.667 170.667s170.667-75.093 170.667-170.667v-34.133h238.933c54.613 0 102.4-47.787 102.4-102.4v-614.4c0-54.613-47.787-102.4-102.4-102.4zM68.267 140.8v-102.4c0-20.48 13.653-34.133 34.133-34.133h819.2c20.48 0 34.133 13.653 34.133 34.133v102.4h-887.467zM68.267 209.067h887.467v443.733c0 20.48-13.653 34.133-34.133 34.133h-819.2c-20.48 0-34.133-13.653-34.133-34.133v-443.733zM409.6 755.2h204.8v34.133c0 54.613-47.787 102.4-102.4 102.4s-102.4-47.787-102.4-102.4v-34.133z" />
<glyph unicode="&#xe963;" glyph-name="briefcase-alt" d="M921.6-64h-819.2c-54.613 0-102.4 47.787-102.4 102.4v614.4c0 54.613 47.787 102.4 102.4 102.4h238.933v34.133c0 95.573 75.093 170.667 170.667 170.667s170.667-75.093 170.667-170.667v-34.133h238.933c54.613 0 102.4-47.787 102.4-102.4v-614.4c0-54.613-47.787-102.4-102.4-102.4zM68.267 434.347v-395.947c0-20.48 13.653-34.133 34.133-34.133h819.2c20.48 0 34.133 13.653 34.133 34.133v395.947c-122.88-109.227-279.893-170.667-443.733-170.667 0 0 0 0 0 0-163.84 0-320.853 61.44-443.733 170.667zM68.267 529.92c116.053-122.88 273.067-197.973 443.733-197.973s327.68 68.267 443.733 197.973v122.88c0 20.48-13.653 34.133-34.133 34.133h-819.2c-20.48 0-34.133-13.653-34.133-34.133v-122.88zM409.6 755.2h204.8v34.133c0 54.613-47.787 102.4-102.4 102.4s-102.4-47.787-102.4-102.4v-34.133z" />
<glyph unicode="&#xe964;" glyph-name="brush" d="M512-64c-54.613 0-102.4 47.787-102.4 102.4v102.4h-170.667c-95.573 0-170.667 75.093-170.667 170.667v477.867c0 95.573 75.093 170.667 170.667 170.667h546.133c95.573 0 170.667-75.093 170.667-170.667v-477.867c0-95.573-75.093-170.667-170.667-170.667h-170.667v-102.4c0-54.613-47.787-102.4-102.4-102.4zM136.533 413.867v-102.4c0-54.613 47.787-102.4 102.4-102.4h238.933v-170.667c0-20.48 13.653-34.133 34.133-34.133s34.133 13.653 34.133 34.133v170.667h238.933c54.613 0 102.4 47.787 102.4 102.4v102.4h-750.933zM136.533 482.133h750.933v307.2c0 54.613-47.787 102.4-102.4 102.4h-238.933v-136.533h-68.267v136.533h-68.267v-273.067h-68.267v273.067h-102.4c-54.613 0-102.4-47.787-102.4-102.4v-307.2z" />
<glyph unicode="&#xe965;" glyph-name="bug" d="M512-64c-102.4 0-191.147 47.787-245.76 129.707l-177.493-88.747-27.307 61.44 177.493 88.747c-27.307 34.133-34.133 75.093-34.133 116.053v102.4h-204.8v68.267h204.8v6.827c0 68.267 13.653 136.533 47.787 197.973v6.827l-204.8 102.4 27.307 61.44 197.973-95.573v27.307c0 129.707 109.227 238.933 238.933 238.933s238.933-109.227 238.933-238.933v-27.307l191.147 95.573 27.307-61.44-204.8-102.4v-6.827c40.96-61.44 54.613-129.707 54.613-197.973v-6.827h204.8v-68.267h-204.8v-102.4c0-40.96-6.827-81.92-27.307-122.88l177.493-88.747-27.307-61.44-177.493 88.747c-61.44-75.093-150.187-122.88-252.587-122.88zM327.68 618.667l-13.653-34.133c-27.307-47.787-40.96-109.227-40.96-163.84v-177.493c0-129.707 109.227-238.933 238.933-238.933s238.933 109.227 238.933 238.933v177.493c0 54.613-13.653 116.053-40.96 170.667l-13.653 27.307h-368.64zM341.333 686.933h341.333v34.133c0 95.573-75.093 170.667-170.667 170.667s-170.667-75.093-170.667-170.667v-34.133z" />
<glyph unicode="&#xe966;" glyph-name="building" d="M512 925.867l15.265 30.53c-9.61 4.805-20.92 4.805-30.53 0l15.265-30.53zM307.2 379.733v34.133h-34.133v-34.133h34.133zM580.267 379.733h34.133v34.133h-34.133v-34.133zM0-64h1024v68.267h-1024v-68.267zM496.735 956.396l-409.6-204.8 30.53-61.060 409.6 204.8-30.53 61.060zM0 550.399h1024v68.267h-1024v-68.267zM936.864 751.596l-409.599 204.8-30.53-61.060 409.601-204.8 30.529 61.060zM68.267 584.533v-614.399h68.267v614.399h-68.267zM887.467 584.533v-614.399h68.267v614.399h-68.267zM341.333-29.867v409.599h-68.267v-409.599h68.267zM307.2 345.599h273.067v68.267h-273.067v-68.267zM546.133 379.733v-409.599h68.267v409.599h-68.267z" />
<glyph unicode="&#xe967;" glyph-name="bulb-off" d="M278.236 518.325v0zM277.55 513.522v0zM745.759 518.325v0zM746.448 513.522v0zM648.533 106.667v-34.133c18.851 0 34.133 15.285 34.133 34.133h-34.133zM375.467 106.667h-34.133c0-18.848 15.282-34.133 34.133-34.133v34.133zM324.641 335.161v0zM699.358 335.163v0zM409.6-64h204.8v68.267h-204.8v-68.267zM244.446 523.153l-0.686-4.803 67.58-9.654 0.687 4.803-67.581 9.655zM511.999 755.2c-134.5 0-248.532-98.899-267.553-232.047l67.581-9.655c14.217 99.517 99.445 173.436 199.972 173.436v68.267zM779.551 523.152c-19.019 133.148-133.052 232.048-267.552 232.048v-68.267c100.527 0 185.755-73.919 199.975-173.436l67.577 9.654zM780.24 518.349l-0.689 4.803-67.577-9.654 0.683-4.803 67.584 9.655zM726.351 314.27c42.988 55.536 64.758 127.997 53.89 204.079l-67.584-9.655c8.137-56.969-8.083-111.027-40.291-152.64l53.985-41.784zM614.4 215.805v-109.138h68.267v109.138h-68.267zM648.533 140.8h-273.067v-68.267h273.067v68.267zM409.6 106.667v109.138h-68.267v-109.138h68.267zM243.76 518.349c-10.869-76.083 10.904-148.544 53.889-204.080l53.985 41.785c-32.209 41.613-48.432 95.671-40.294 152.642l-67.58 9.654zM409.6 215.805c0 56.238-29.895 103.981-57.967 140.249l-53.985-41.785c26.171-33.813 43.685-66.086 43.685-98.464h68.267zM672.365 356.054c-28.071-36.268-57.965-84.012-57.965-140.25h68.267c0 32.379 17.51 64.653 43.684 98.466l-53.985 41.784z" />
<glyph unicode="&#xe968;" glyph-name="bulb-on" d="M278.236 518.326v0zM277.55 513.522v0zM745.759 518.325v0zM746.448 513.522v0zM648.533 106.667v-34.133c18.851 0 34.133 15.285 34.133 34.133h-34.133zM375.467 106.667h-34.133c0-18.848 15.282-34.133 34.133-34.133v34.133zM324.641 335.161v0zM699.358 335.163v0zM409.6-64h204.8v68.267h-204.8v-68.267zM244.446 523.153l-0.686-4.803 67.58-9.654 0.687 4.803-67.581 9.655zM511.999 755.2c-134.5 0-248.532-98.899-267.553-232.047l67.581-9.655c14.217 99.517 99.445 173.436 199.972 173.436v68.267zM779.551 523.152c-19.019 133.148-133.052 232.048-267.552 232.048v-68.267c100.527 0 185.755-73.919 199.975-173.436l67.577 9.654zM780.24 518.349l-0.689 4.803-67.577-9.654 0.683-4.803 67.584 9.654zM726.351 314.27c42.988 55.536 64.758 127.997 53.89 204.079l-67.584-9.655c8.137-56.969-8.083-111.027-40.291-152.64l53.985-41.784zM614.4 215.805v-109.138h68.267v109.138h-68.267zM648.533 140.8h-273.067v-68.267h273.067v68.267zM409.6 106.667v109.138h-68.267v-109.138h68.267zM243.76 518.349c-10.869-76.083 10.904-148.544 53.889-204.080l53.985 41.785c-32.209 41.613-48.432 95.671-40.294 152.642l-67.58 9.654zM409.6 215.805c0 56.238-29.895 103.981-57.967 140.249l-53.985-41.785c26.171-33.813 43.685-66.086 43.685-98.464h68.267zM672.365 356.054c-28.071-36.268-57.965-84.012-57.965-140.25h68.267c0 32.379 17.51 64.653 43.684 98.466l-53.985 41.784zM477.867 960v-136.533h68.267v136.533h-68.267zM0 413.867h136.533v68.267h-136.533v-68.267zM887.467 413.867h136.533v68.267h-136.533v-68.267zM228.936 711.069l-102.4 102.4-48.271-48.271 102.4-102.4 48.271 48.271zM843.339 662.798l102.4 102.4-48.278 48.271-102.4-102.4 48.278-48.271z" />
<glyph unicode="&#xe969;" glyph-name="button" d="M546.133-64h-34.133c-170.667 0-307.2 136.533-307.2 307.2 0 81.92 61.44 150.187 136.533 170.667v307.2c0 54.613 47.787 102.4 102.4 102.4s102.4-47.787 102.4-102.4v-238.933h197.973c75.093 0 143.36-68.267 143.36-143.36v-61.44c0-191.147-150.187-341.333-341.333-341.333zM341.333 338.773c-40.96-13.653-68.267-54.613-68.267-95.573 0-129.707 109.227-238.933 238.933-238.933h34.133c150.187 0 273.067 122.88 273.067 273.067v61.44c0 40.96-34.133 75.093-75.093 75.093h-266.24v307.2c0 20.48-13.653 34.133-34.133 34.133s-34.133-13.653-34.133-34.133v-443.733h-68.267v61.44zM750.933 550.4h-136.533v68.267h136.533c75.093 0 136.533 61.44 136.533 136.533s-61.44 136.533-136.533 136.533h-477.867c-75.093 0-136.533-61.44-136.533-136.533s61.44-136.533 136.533-136.533v-68.267c-116.053 0-204.8 88.747-204.8 204.8s88.747 204.8 204.8 204.8h477.867c116.053 0 204.8-88.747 204.8-204.8s-88.747-204.8-204.8-204.8z" />
<glyph unicode="&#xe96a;" glyph-name="c" d="M512-36.693l-443.733 259.413v450.56l443.733 259.413 443.733-259.413v-450.56l-443.733-259.413zM136.533 263.68l375.467-218.453 375.467 218.453v368.64l-375.467 218.453-375.467-218.453v-368.64zM525.653 209.067h-13.653c-129.707 0-238.933 109.227-238.933 238.933s109.227 238.933 238.933 238.933h13.653c68.267 0 129.707-27.307 177.493-75.093l-47.787-54.613v6.827c-34.133 34.133-81.92 54.613-129.707 54.613h-13.653c-95.573 0-170.667-75.093-170.667-170.667s75.093-170.667 170.667-170.667h13.653c47.787 0 95.573 20.48 129.707 54.613l54.613-40.96c-54.613-54.613-116.053-81.92-184.32-81.92z" />
<glyph unicode="&#xe96b;" glyph-name="calculator" d="M853.333-64h-682.667c-54.613 0-102.4 47.787-102.4 102.4v819.2c0 54.613 47.787 102.4 102.4 102.4h682.667c54.613 0 102.4-47.787 102.4-102.4v-819.2c0-54.613-47.787-102.4-102.4-102.4zM170.667 891.733c-20.48 0-34.133-13.653-34.133-34.133v-819.2c0-20.48 13.653-34.133 34.133-34.133h682.667c20.48 0 34.133 13.653 34.133 34.133v819.2c0 20.48-13.653 34.133-34.133 34.133h-682.667zM750.933 140.8h-68.267v68.267h68.267v-68.267zM546.133 140.8h-68.267v68.267h68.267v-68.267zM341.333 140.8h-68.267v68.267h68.267v-68.267zM750.933 345.6h-68.267v68.267h68.267v-68.267zM546.133 345.6h-68.267v68.267h68.267v-68.267zM341.333 345.6h-68.267v68.267h68.267v-68.267zM750.933 618.667h-477.867v68.267h477.867v-68.267z" />
<glyph unicode="&#xe96c;" glyph-name="calendar" d="M921.6-64h-819.2c-54.613 0-102.4 47.787-102.4 102.4v682.667c0 54.613 47.787 102.4 102.4 102.4h102.4v136.533h68.267v-136.533h477.867v136.533h68.267v-136.533h102.4c54.613 0 102.4-47.787 102.4-102.4v-682.667c0-54.613-47.787-102.4-102.4-102.4zM102.4 755.2c-20.48 0-34.133-13.653-34.133-34.133v-682.667c0-20.48 13.653-34.133 34.133-34.133h819.2c20.48 0 34.133 13.653 34.133 34.133v682.667c0 20.48-13.653 34.133-34.133 34.133h-102.4v-136.533h-68.267v136.533h-477.867v-136.533h-68.267v136.533h-102.4z" />
<glyph unicode="&#xe96d;" glyph-name="calendar-minus" d="M921.6-64h-819.2c-54.613 0-102.4 47.787-102.4 102.4v682.667c0 54.613 47.787 102.4 102.4 102.4h102.4v136.533h68.267v-136.533h477.867v136.533h68.267v-136.533h102.4c54.613 0 102.4-47.787 102.4-102.4v-682.667c0-54.613-47.787-102.4-102.4-102.4zM102.4 755.2c-20.48 0-34.133-13.653-34.133-34.133v-682.667c0-20.48 13.653-34.133 34.133-34.133h819.2c20.48 0 34.133 13.653 34.133 34.133v682.667c0 20.48-13.653 34.133-34.133 34.133h-102.4v-136.533h-68.267v136.533h-477.867v-136.533h-68.267v136.533h-102.4zM682.667 345.6h-341.333v68.267h341.333v-68.267z" />
<glyph unicode="&#xe96e;" glyph-name="calendar-no-access" d="M921.6-64h-819.2c-54.613 0-102.4 47.787-102.4 102.4v682.667c0 54.613 47.787 102.4 102.4 102.4h102.4v136.533h68.267v-136.533h477.867v136.533h68.267v-136.533h102.4c54.613 0 102.4-47.787 102.4-102.4v-682.667c0-54.613-47.787-102.4-102.4-102.4zM102.4 755.2c-20.48 0-34.133-13.653-34.133-34.133v-682.667c0-20.48 13.653-34.133 34.133-34.133h819.2c20.48 0 34.133 13.653 34.133 34.133v682.667c0 20.48-13.653 34.133-34.133 34.133h-102.4v-136.533h-68.267v136.533h-477.867v-136.533h-68.267v136.533h-102.4zM512 140.8c-129.707 0-238.933 109.227-238.933 238.933s109.227 238.933 238.933 238.933 238.933-109.227 238.933-238.933-109.227-238.933-238.933-238.933zM416.427 236.373c27.307-13.653 61.44-27.307 95.573-27.307 95.573 0 170.667 75.093 170.667 170.667 0 34.133-13.653 68.267-27.307 95.573l-238.933-238.933zM512 550.4c-95.573 0-170.667-75.093-170.667-170.667 0-34.133 13.653-68.267 27.307-95.573l238.933 238.933c-27.307 13.653-61.44 27.307-95.573 27.307z" />
<glyph unicode="&#xe96f;" glyph-name="calendar-plus" d="M921.6-64h-819.2c-54.613 0-102.4 47.787-102.4 102.4v682.667c0 54.613 47.787 102.4 102.4 102.4h102.4v136.533h68.267v-136.533h477.867v136.533h68.267v-136.533h102.4c54.613 0 102.4-47.787 102.4-102.4v-682.667c0-54.613-47.787-102.4-102.4-102.4zM102.4 755.2c-20.48 0-34.133-13.653-34.133-34.133v-682.667c0-20.48 13.653-34.133 34.133-34.133h819.2c20.48 0 34.133 13.653 34.133 34.133v682.667c0 20.48-13.653 34.133-34.133 34.133h-102.4v-136.533h-68.267v136.533h-477.867v-136.533h-68.267v136.533h-102.4zM546.133 209.067h-68.267v136.533h-136.533v68.267h136.533v136.533h68.267v-136.533h136.533v-68.267h-136.533v-136.533z" />
<glyph unicode="&#xe970;" glyph-name="calendar-tick" d="M921.6-64h-819.2c-54.613 0-102.4 47.787-102.4 102.4v682.667c0 54.613 47.787 102.4 102.4 102.4h102.4v136.533h68.267v-136.533h477.867v136.533h68.267v-136.533h102.4c54.613 0 102.4-47.787 102.4-102.4v-682.667c0-54.613-47.787-102.4-102.4-102.4zM102.4 755.2c-20.48 0-34.133-13.653-34.133-34.133v-682.667c0-20.48 13.653-34.133 34.133-34.133h819.2c20.48 0 34.133 13.653 34.133 34.133v682.667c0 20.48-13.653 34.133-34.133 34.133h-102.4v-136.533h-68.267v136.533h-477.867v-136.533h-68.267v136.533h-102.4zM477.867 195.413l-163.84 157.013 47.787 47.787 116.053-109.227 211.627 245.76 54.613-47.787-266.24-293.547z" />
<glyph unicode="&#xe971;" glyph-name="calendar-x" d="M921.6-64h-819.2c-54.613 0-102.4 47.787-102.4 102.4v682.667c0 54.613 47.787 102.4 102.4 102.4h102.4v136.533h68.267v-136.533h477.867v136.533h68.267v-136.533h102.4c54.613 0 102.4-47.787 102.4-102.4v-682.667c0-54.613-47.787-102.4-102.4-102.4zM102.4 755.2c-20.48 0-34.133-13.653-34.133-34.133v-682.667c0-20.48 13.653-34.133 34.133-34.133h819.2c20.48 0 34.133 13.653 34.133 34.133v682.667c0 20.48-13.653 34.133-34.133 34.133h-102.4v-136.533h-68.267v136.533h-477.867v-136.533h-68.267v136.533h-102.4zM621.227 215.893l-109.227 116.053-109.227-109.227-47.787 47.787 109.227 109.227-116.053 109.227 47.787 47.787 109.227-109.227 109.227 109.227 47.787-47.787-102.4-109.227 109.227-109.227-47.787-54.613z" />
<glyph unicode="&#xe972;" glyph-name="camera" d="M921.6 4.267h-819.2c-54.613 0-102.4 47.787-102.4 102.4v546.133c0 54.613 47.787 102.4 102.4 102.4h819.2c54.613 0 102.4-47.787 102.4-102.4v-546.133c0-54.613-47.787-102.4-102.4-102.4zM102.4 686.933c-20.48 0-34.133-13.653-34.133-34.133v-546.133c0-20.48 13.653-34.133 34.133-34.133h819.2c20.48 0 34.133 13.653 34.133 34.133v546.133c0 20.48-13.653 34.133-34.133 34.133h-819.2zM648.533 209.067c-95.573 0-170.667 75.093-170.667 170.667s75.093 170.667 170.667 170.667 170.667-75.093 170.667-170.667c0-95.573-75.093-170.667-170.667-170.667zM648.533 482.133c-54.613 0-102.4-47.787-102.4-102.4s47.787-102.4 102.4-102.4 102.4 47.787 102.4 102.4-47.787 102.4-102.4 102.4zM477.867 823.467h-341.333v68.267h341.333v-68.267z" />
<glyph unicode="&#xe973;" glyph-name="candle-chart" d="M1024-64h-1024v1024h68.267v-955.733h955.733v-68.267zM955.733 72.533h-68.267v136.533h-68.267v341.333h68.267v136.533h68.267v-136.533h68.267v-341.333h-68.267v-136.533zM887.467 277.333h68.267v204.8h-68.267v-204.8zM273.067 140.8h-68.267v136.533h-68.267v341.333h68.267v68.267h68.267v-68.267h68.267v-341.333h-68.267v-136.533zM204.8 345.6h68.267v204.8h-68.267v-204.8zM682.667 413.867h-204.8v341.333h68.267v204.8h68.267v-204.8h68.267v-341.333zM546.133 482.133h68.267v204.8h-68.267v-204.8z" />
<glyph unicode="&#xe974;" glyph-name="car" d="M989.867 516.492h34.133v9.46l-4.867 8.11-29.266-17.57zM34.133 516.492l-29.264 17.57-4.869-8.11v-9.46h34.133zM179.266 758.22v0zM844.732 758.22v0zM238.933 174.933v34.133h-34.133v-34.133h34.133zM785.067 174.933h34.133v34.133h-34.133v-34.133zM955.733 516.492v-409.825h68.267v409.825h-68.267zM63.397 498.921l145.133 241.728-58.528 35.14-145.132-241.728 58.528-35.14zM354.849 823.467h314.301v68.267h-314.301v-68.267zM815.473 740.65l145.128-241.728 58.532 35.14-145.135 241.728-58.525-35.14zM170.667 72.533h-68.267v-68.267h68.267v68.267zM204.8 174.933v-68.267h68.267v68.267h-68.267zM921.6 72.533h-68.267v-68.267h68.267v68.267zM819.2 106.667v68.267h-68.267v-68.267h68.267zM785.067 209.067h-546.133v-68.267h546.133v68.267zM68.267 106.667v409.825h-68.267v-409.825h68.267zM853.333 72.533c-18.848 0-34.133 15.285-34.133 34.133h-68.267c0-56.552 45.848-102.4 102.4-102.4v68.267zM170.667 4.267c56.554 0 102.4 45.848 102.4 102.4h-68.267c0-18.848-15.282-34.133-34.133-34.133v-68.267zM102.4 72.533c-18.851 0-34.133 15.285-34.133 34.133h-68.267c0-56.552 45.846-102.4 102.4-102.4v68.267zM669.151 823.467c59.931 0 115.472-31.435 146.322-82.817l58.525 35.14c-43.185 71.934-120.941 115.943-204.847 115.943v-68.267zM208.53 740.65c30.849 51.382 86.389 82.817 146.319 82.817v68.267c-83.903 0-161.659-44.009-204.848-115.943l58.528-35.14zM955.733 106.667c0-18.848-15.285-34.133-34.133-34.133v-68.267c56.552 0 102.4 45.848 102.4 102.4h-68.267zM136.533 277.333h204.8v68.267h-204.8v-68.267zM887.467 345.6h-204.8v-68.267h204.8v68.267zM204.8 482.133h614.4v68.267h-614.4v-68.267z" />
<glyph unicode="&#xe975;" glyph-name="caret-vertical" d="M512 72.533l-22.677-25.511 22.677-20.159 22.677 20.159-22.677 25.511zM512 823.467l23.212 25.026-22.724 21.077-23.165-20.591 22.677-25.511zM534.677 47.022l307.201 273.067-45.356 51.023-307.199-273.067 45.354-51.023zM534.677 98.045l-307.2 273.067-45.354-51.023 307.2-273.067 45.354 51.023zM489.323 848.978l-307.2-273.067 45.354-51.023 307.2 273.067-45.354 51.023zM488.788 798.441l294.401-273.067 46.421 50.052-294.399 273.067-46.424-50.052z" />
<glyph unicode="&#xe976;" glyph-name="caret-vertical-circle" d="M703.986 318.947l26.658 21.322-42.646 53.307-26.655-21.323 42.643-53.307zM512 209.067l-21.323-26.651 21.323-17.060 21.323 17.060-21.323 26.651zM362.656 372.253l-26.654 21.323-42.646-53.307 26.653-21.322 42.646 53.307zM320.010 577.053l-26.653-21.322 42.646-53.307 26.654 21.323-42.646 53.307zM512 686.933l21.323 26.653-21.323 17.058-21.323-17.058 21.323-26.653zM661.344 523.747l26.655-21.323 42.646 53.307-26.658 21.322-42.643-53.307zM661.344 372.253l-170.667-136.535 42.646-53.303 170.663 136.531-42.643 53.307zM533.323 235.718l-170.667 136.535-42.646-53.307 170.667-136.531 42.646 53.303zM362.656 523.747l170.667 136.533-42.646 53.307-170.667-136.533 42.646-53.307zM490.677 660.28l170.667-136.533 42.643 53.307-170.663 136.533-42.646-53.307zM512 4.267c-245.067 0-443.733 198.663-443.733 443.733h-68.267c0-282.767 229.23-512 512-512v68.267zM955.733 448c0-245.071-198.663-443.733-443.733-443.733v-68.267c282.767 0 512 229.233 512 512h-68.267zM512 891.733c245.071 0 443.733-198.666 443.733-443.733h68.267c0 282.77-229.233 512-512 512v-68.267zM512 960c-282.77 0-512-229.23-512-512h68.267c0 245.067 198.666 443.733 443.733 443.733v68.267z" />
<glyph unicode="&#xe977;" glyph-name="caret-vertical-small" d="M512 168.107l-218.453 170.667 40.96 54.613 177.493-143.36 177.493 143.36 40.96-54.613-218.453-170.667zM689.493 502.613l-177.493 143.36-177.493-143.36-40.96 54.613 218.453 177.493 218.453-177.493-40.96-54.613z" />
<glyph unicode="&#xe978;" glyph-name="cart" d="M853.333-64c-54.613 0-102.4 47.787-102.4 102.4s47.787 102.4 102.4 102.4 102.4-47.787 102.4-102.4-47.787-102.4-102.4-102.4zM853.333 72.533c-20.48 0-34.133-13.653-34.133-34.133s13.653-34.133 34.133-34.133 34.133 13.653 34.133 34.133-13.653 34.133-34.133 34.133zM375.467-64c-54.613 0-102.4 47.787-102.4 102.4s47.787 102.4 102.4 102.4 102.4-47.787 102.4-102.4-47.787-102.4-102.4-102.4zM375.467 72.533c-20.48 0-34.133-13.653-34.133-34.133s13.653-34.133 34.133-34.133 34.133 13.653 34.133 34.133-13.653 34.133-34.133 34.133zM1024 209.067h-812.373l-211.627 709.973 68.267 20.48 34.133-116.053h750.933c95.573 0 170.667-75.093 170.667-170.667v-443.733zM266.24 277.333h689.493v375.467c0 54.613-47.787 102.4-102.4 102.4h-730.453l143.36-477.867z" />
<glyph unicode="&#xe979;" glyph-name="cart-minus" d="M853.333-64c-54.613 0-102.4 47.787-102.4 102.4s47.787 102.4 102.4 102.4 102.4-47.787 102.4-102.4-47.787-102.4-102.4-102.4zM853.333 72.533c-20.48 0-34.133-13.653-34.133-34.133s13.653-34.133 34.133-34.133 34.133 13.653 34.133 34.133-13.653 34.133-34.133 34.133zM375.467-64c-54.613 0-102.4 47.787-102.4 102.4s47.787 102.4 102.4 102.4 102.4-47.787 102.4-102.4-47.787-102.4-102.4-102.4zM375.467 72.533c-20.48 0-34.133-13.653-34.133-34.133s13.653-34.133 34.133-34.133 34.133 13.653 34.133 34.133-13.653 34.133-34.133 34.133zM1024 209.067h-812.373l-211.627 709.973 68.267 20.48 34.133-116.053h750.933c95.573 0 170.667-75.093 170.667-170.667v-443.733zM266.24 277.333h689.493v375.467c0 54.613-47.787 102.4-102.4 102.4h-730.453l143.36-477.867zM750.933 482.133h-341.333v68.267h341.333v-68.267z" />
<glyph unicode="&#xe97a;" glyph-name="cart-plus" d="M853.333-64c-54.613 0-102.4 47.787-102.4 102.4s47.787 102.4 102.4 102.4 102.4-47.787 102.4-102.4-47.787-102.4-102.4-102.4zM853.333 72.533c-20.48 0-34.133-13.653-34.133-34.133s13.653-34.133 34.133-34.133 34.133 13.653 34.133 34.133-13.653 34.133-34.133 34.133zM375.467-64c-54.613 0-102.4 47.787-102.4 102.4s47.787 102.4 102.4 102.4 102.4-47.787 102.4-102.4-47.787-102.4-102.4-102.4zM375.467 72.533c-20.48 0-34.133-13.653-34.133-34.133s13.653-34.133 34.133-34.133 34.133 13.653 34.133 34.133-13.653 34.133-34.133 34.133zM1024 209.067h-812.373l-211.627 709.973 68.267 20.48 34.133-116.053h750.933c95.573 0 170.667-75.093 170.667-170.667v-443.733zM266.24 277.333h689.493v375.467c0 54.613-47.787 102.4-102.4 102.4h-730.453l143.36-477.867zM614.4 345.6h-68.267v136.533h-136.533v68.267h136.533v136.533h68.267v-136.533h136.533v-68.267h-136.533v-136.533z" />
<glyph unicode="&#xe97b;" glyph-name="certificate" d="M648.533-29.867h-34.133c0-12.93 7.305-24.747 18.868-30.529s25.402-4.533 35.745 3.222l-20.48 27.307zM785.067 72.533l20.48 27.307c-12.138 9.1-28.822 9.1-40.96 0l20.48-27.307zM921.6-29.867l-20.48-27.307c10.342-7.755 24.18-9.004 35.744-3.222s18.869 17.599 18.869 30.529h-34.133zM785.067 209.067c-94.256 0-170.667 76.41-170.667 170.667h-68.267c0-131.959 106.974-238.933 238.933-238.933v68.267zM955.733 379.733c0-94.256-76.411-170.667-170.667-170.667v-68.267c131.959 0 238.933 106.974 238.933 238.933h-68.267zM785.067 550.4c94.256 0 170.667-76.41 170.667-170.667h68.267c0 131.959-106.974 238.933-238.933 238.933v-68.267zM785.067 618.667c-131.959 0-238.933-106.974-238.933-238.933h68.267c0 94.256 76.411 170.667 170.667 170.667v68.267zM614.4 243.2v-273.067h68.267v273.067h-68.267zM669.013-57.173l136.533 102.4-40.96 54.613-136.533-102.4 40.96-54.613zM764.587 45.227l136.533-102.4 40.96 54.613-136.533 102.4-40.96-54.613zM955.733-29.867v273.067h-68.267v-273.067h68.267zM1024 618.667v238.933h-68.267v-238.933h68.267zM921.6 960h-819.2v-68.267h819.2v68.267zM0 857.6v-819.2h68.267v819.2h-68.267zM102.4-64h443.733v68.267h-443.733v-68.267zM0 38.4c0-56.552 45.846-102.4 102.4-102.4v68.267c-18.851 0-34.133 15.285-34.133 34.133h-68.267zM102.4 960c-56.554 0-102.4-45.846-102.4-102.4h68.267c0 18.851 15.282 34.133 34.133 34.133v68.267zM1024 857.6c0 56.554-45.848 102.4-102.4 102.4v-68.267c18.848 0 34.133-15.282 34.133-34.133h68.267zM204.8 618.667h341.333v68.267h-341.333v-68.267zM204.8 413.867h204.8v68.267h-204.8v-68.267z" />
<glyph unicode="&#xe97c;" glyph-name="chat" d="M785.067 38.4l10.704 32.413-14.882 4.915-13.428-8.083 17.606-29.245zM921.6 174.933l-28.754 18.398-8.793-13.749 5.175-15.469 32.372 10.82zM989.867-29.239l-10.704-32.413c12.268-4.055 25.764-0.833 34.884 8.322 9.12 9.148 12.288 22.658 8.192 34.912l-32.372-10.82zM767.461 67.645c-65.277-39.308-169.679-62.751-255.461-62.751v-68.267c94.579 0 212.043 25.19 290.673 72.527l-35.212 58.491zM512 4.895c-245.089 0-443.733 198.54-443.733 443.414h-68.267c0-282.619 229.251-511.681 512-511.681v68.267zM68.267 448.309c0 244.875 198.645 443.425 443.733 443.425v68.267c-282.75 0-512-229.073-512-511.691h68.267zM512 891.733c245.091 0 443.733-198.55 443.733-443.425h68.267c0 282.619-229.253 511.691-512 511.691v-68.267zM955.733 448.309c0-90.849-20.186-188.24-62.887-254.977l57.508-36.796c52.19 81.579 73.646 193.375 73.646 291.773h-68.267zM774.362 5.987l204.8-67.639 21.408 64.819-204.8 67.645-21.408-64.826zM1022.239-18.418l-68.267 204.172-64.744-21.641 68.267-204.179 64.744 21.647z" />
<glyph unicode="&#xe97d;" glyph-name="chatbot" d="M614.397 789.342v0zM409.597 789.34v0zM877.609 146.111l-23.927 24.344-13.92-13.687 4.731-18.93 33.116 8.274zM921.6-29.86l-8.274-33.116c11.633-2.908 23.934 0.505 32.413 8.984 8.479 8.472 11.885 20.78 8.977 32.413l-33.116-8.281zM648.537 38.4l-24.136 24.139-42.629-42.633 58.487-14.616 8.278 33.109zM650.228 40.093l24.136-24.132c10.18 10.179 12.876 25.648 6.747 38.666-6.13 13.025-19.771 20.808-34.101 19.449l3.217-33.983zM34.133 413.875v0zM477.867 960v-170.667h68.267v170.667h-68.267zM614.397 823.475l-204.801-0.001 0.001-68.267 204.801 0.001-0.001 68.267zM1024 413.875c0 226.217-183.385 409.602-409.603 409.6l0.001-68.267c188.514 0.002 341.335-152.819 341.335-341.333h68.267zM901.536 121.774c75.551 74.267 122.464 177.737 122.464 292.101h-68.267c0-95.317-39.021-181.454-102.052-243.42l47.855-48.681zM954.716-21.579l-43.991 175.971-66.232-16.555 43.998-175.978 66.225 16.561zM640.259 5.291l273.067-68.267 16.555 66.232-273.066 68.26-16.556-66.225zM626.092 64.232l-1.692-1.693 48.272-48.271 1.692 1.693-48.272 48.271zM614.401 4.273c13.16 0 26.184 0.621 39.044 1.836l-6.433 67.966c-10.724-1.017-21.602-1.536-32.61-1.536v-68.267zM409.599 4.273h204.801v68.267h-204.801v-68.267zM0 413.875c-0.001-226.217 183.383-409.601 409.599-409.601v68.267c-188.513 0-341.333 152.822-341.333 341.335h-68.267zM409.596 823.473c-226.214-0.002-409.595-183.385-409.596-409.599h68.267c0.001 188.511 152.818 341.33 341.33 341.332l-0.001 68.267zM512 413.867c-56.554 0-102.4 45.846-102.4 102.4h-68.267c0-94.256 76.41-170.667 170.667-170.667v68.267zM614.4 516.267c0-56.554-45.846-102.4-102.4-102.4v-68.267c94.256 0 170.667 76.41 170.667 170.667h-68.267zM512 618.667c56.554 0 102.4-45.846 102.4-102.4h68.267c0 94.256-76.41 170.667-170.667 170.667v-68.267zM512 686.933c-94.256 0-170.667-76.41-170.667-170.667h68.267c0 56.554 45.846 102.4 102.4 102.4v68.267zM511.999 140.8c72.615 0 139.429 25.238 192.014 67.393l-42.698 53.262c-40.912-32.795-92.779-52.388-149.316-52.388v-68.267zM319.984 208.193c52.586-42.155 119.4-67.393 192.015-67.393v68.267c-56.538 0-108.405 19.593-149.317 52.388l-42.698-53.262z" />
<glyph unicode="&#xe97e;" glyph-name="chat-typing" d="M375.467 175.425l28.395 18.937c-6.331 9.496-16.986 15.196-28.395 15.196v-34.133zM512-29.245l-28.395-18.937c6.331-9.496 16.986-15.196 28.395-15.196s22.064 5.7 28.395 15.196l-28.395 18.937zM648.533 175.425v34.133c-11.409 0-22.064-5.7-28.395-15.196l28.395-18.937zM347.072 156.481l136.533-204.663 56.79 37.881-136.533 204.663-56.79-37.881zM540.395-48.183l136.533 204.663-56.79 37.881-136.533-204.663 56.79-37.881zM648.533 141.292h273.067v68.267h-273.067v-68.267zM921.6 141.292c56.579 0 102.4 45.752 102.4 102.352h-68.267c0-18.855-15.21-34.086-34.133-34.086v-68.267zM1024 243.644v614.001h-68.267v-614.001h68.267zM1024 857.644c0 56.599-45.821 102.356-102.4 102.356v-68.267c18.924 0 34.133-15.234 34.133-34.089h68.267zM921.6 960h-819.2v-68.267h819.2v68.267zM102.4 960c-56.582 0-102.4-45.756-102.4-102.356h68.267c0 18.855 15.212 34.089 34.133 34.089v68.267zM0 857.644v-614.001h68.267v614.001h-68.267zM0 243.644c0-56.6 45.818-102.352 102.4-102.352v68.267c-18.921 0-34.133 15.23-34.133 34.086h-68.267zM102.4 141.292h273.067v68.267h-273.067v-68.267zM477.867 482.133h68.267v68.267h-68.267v-68.267zM273.067 482.133h68.267v68.267h-68.267v-68.267zM682.667 482.133h68.267v68.267h-68.267v-68.267z" />
<glyph unicode="&#xe97f;" glyph-name="chat-typing-alt" d="M1024-64h-512c-279.893 0-512 232.107-512 512s232.107 512 512 512 512-232.107 512-512v-512zM512 891.733c-245.76 0-443.733-197.973-443.733-443.733s197.973-443.733 443.733-443.733h443.733v443.733c0 245.76-197.973 443.733-443.733 443.733zM750.933 413.867h-68.267v68.267h68.267v-68.267zM546.133 413.867h-68.267v68.267h68.267v-68.267zM341.333 413.867h-68.267v68.267h68.267v-68.267z" />
<glyph unicode="&#xe980;" glyph-name="chrome" d="M921.6 618.667c18.848 0 34.133 15.282 34.133 34.133s-15.285 34.133-34.133 34.133v-68.267zM202.358 767.876c-7.001 17.504-26.866 26.016-44.369 19.016s-26.016-26.866-19.015-44.369l63.384 25.354zM955.733 448c0-245.098-198.636-443.733-443.733-443.733v-68.267c282.801 0 512 229.199 512 512h-68.267zM512 4.267c-245.097 0-443.733 198.636-443.733 443.733h-68.267c0-282.801 229.2-512 512-512v68.267zM68.267 448c0 245.097 198.636 443.733 443.733 443.733v68.267c-282.8 0-512-229.2-512-512h68.267zM512 891.733c245.098 0 443.733-198.636 443.733-443.733h68.267c0 282.8-229.199 512-512 512v-68.267zM512 618.667h409.6v68.267h-409.6v-68.267zM338.891 426.543l-136.533 341.333-63.384-25.354 136.533-341.333 63.384 25.354zM631.399 325.031l-249.173-334.506 54.747-40.783 249.175 334.507-54.749 40.781zM512 277.333c-94.256 0-170.667 76.41-170.667 170.667h-68.267c0-131.959 106.974-238.933 238.933-238.933v68.267zM682.667 448c0-94.256-76.41-170.667-170.667-170.667v-68.267c131.959 0 238.933 106.974 238.933 238.933h-68.267zM512 618.667c94.256 0 170.667-76.41 170.667-170.667h68.267c0 131.959-106.974 238.933-238.933 238.933v-68.267zM512 686.933c-131.959 0-238.933-106.974-238.933-238.933h68.267c0 94.256 76.41 170.667 170.667 170.667v68.267z" />
</font>
</defs>
</svg>
